Вы используете незарегистрированную версию компонента "Вкладки"!

Поиск

(Avant-Garde Jazz, Modern Creative) [CD] Antonio Moncada (Stefano Maltese, Tony Cattano, Michele Conti, Fred Casadei) - Trois Eclats de Temps - 2001, FLAC (tracks+.cue), lossless

(Avant-Garde Jazz, Modern Creative) [CD] Antonio Moncada (Stefano Maltese, Tony Cattano, Michele Conti, Fred Casadei) - Trois Eclats de Temps - 2001, FLAC (tracks+.cue), lossless
Треклист:
Antonio Moncada / Trois Eclats de Temps
Жанр: Avant-Garde Jazz, Modern Creative
Носитель: CD
Страна-производитель диска (релиза): Italy
Год издания: 2001
Издатель (лейбл): Splasc(h) Records
Номер по каталогу: CDH 740.2
Аудиокодек: FLAC (*.flac)
Тип рипа: tracks+.cue
Битрейт аудио: lossless
Продолжительность: 77:08
Источник (релизер): cd
Наличие сканов в содержимом раздачи: нет
Треклист:
1. Anamnesi 12:21
2. La danseuse folle 15:29
3. Les jardins du delire 15:24
4. De nativitate (Le chant de l`inquietude) 09:33
5. Magie du lexique 11:32
6. Trois eclats de temps 12:46
Доп. информация: Recorded on 12-13 May 2000 at "Studio Recording", Scordia (Catania).
 
Лог создания рипа
Exact Audio Copy V1.0 beta 3 from 29. August 2011
EAC extraction logfile from 17. March 2015, 11:25
Antonio Moncada / Trois Eclats de Temps
Used drive : ASUS DRW-24F1ST a Adapter: 0 ID: 0
Read mode : Secure
Utilize accurate stream : Yes
Defeat audio cache : Yes
Make use of C2 pointers : No
Read offset correction : 6
Overread into Lead-In and Lead-Out : No
Fill up missing offset samples with silence : Yes
Delete leading and trailing silent blocks : No
Null samples used in CRC calculations : Yes
Used interface : Native Win32 interface for Win NT & 2000
Gap handling : Appended to previous track
Used output format : User Defined Encoder
Selected bitrate : 320 kBit/s
Quality : High
Add ID3 tag : No
Command line compressor : D:\Programs\Exact Audio Copy\Flac\flac.exe
Additional command line options : -V -8 -T "Genre=%genre%" -T "Artist=%artist%" -T "Title=%title%" -T "Album=%albumtitle%" -T "Date=%year%" -T "Tracknumber=%tracknr%" -T "Comment=%comment%" %source%
TOC of the extracted CD
Track | Start | Length | Start sector | End sector
---------------------------------------------------------
1 | 0:00.00 | 12:21.58 | 0 | 55632
2 | 12:21.58 | 15:29.68 | 55633 | 125375
3 | 27:51.51 | 15:24.36 | 125376 | 194711
4 | 43:16.12 | 9:33.11 | 194712 | 237697
5 | 52:49.23 | 11:32.20 | 237698 | 289617
6 | 64:21.43 | 12:46.35 | 289618 | 347102
Track 1
Filename D:\EAC\01 Anamnesi.wav
Pre-gap length 0:00:02.00
Peak level 99.9 %
Extraction speed 5.9 X
Track quality 100.0 %
Test CRC 0C1686FD
Copy CRC 0C1686FD
Copy OK
Track 2
Filename D:\EAC\02 La danseuse folle.wav
Pre-gap length 0:00:02.00
Peak level 99.9 %
Extraction speed 7.1 X
Track quality 99.9 %
Test CRC 3D9C20D2
Copy CRC 3D9C20D2
Copy OK
Track 3
Filename D:\EAC\03 Les jardins du delire.wav
Pre-gap length 0:00:02.00
Peak level 100.0 %
Extraction speed 8.6 X
Track quality 100.0 %
Test CRC FF8C7918
Copy CRC FF8C7918
Copy OK
Track 4
Filename D:\EAC\04 De nativitate (Le chant de l`inquietude).wav
Pre-gap length 0:00:02.00
Peak level 99.2 %
Extraction speed 9.1 X
Track quality 100.0 %
Test CRC 887D50E0
Copy CRC 887D50E0
Copy OK
Track 5
Filename D:\EAC\05 Magie du lexique.wav
Pre-gap length 0:00:02.00
Peak level 99.9 %
Extraction speed 9.9 X
Track quality 100.0 %
Test CRC 75478E3F
Copy CRC 75478E3F
Copy OK
Track 6
Filename D:\EAC\06 Trois eclats de temps.wav
Pre-gap length 0:00:02.00
Peak level 99.9 %
Extraction speed 10.5 X
Track quality 100.0 %
Test CRC 9124FA85
Copy CRC 9124FA85
Copy OK
No errors occurred
End of status report
==== Log checksum D64AC424FB2324F51025F2D844F4D9949AB996C5B58DB3B63D4EC146F528E68C ====
 
Содержание индексной карты (.CUE)
REM GENRE Jazz
REM DATE 2000
REM DISCID 59121406
REM COMMENT "ExactAudioCopy v1.0b3"
PERFORMER "Antonio Moncada"
TITLE "Trois Eclats de Temps"
FILE "01 Anamnesi.wav" WAVE
TRACK 01 AUDIO
TITLE "Anamnesi"
PERFORMER "Antonio Moncada"
INDEX 01 00:00:00
TRACK 02 AUDIO
TITLE "La danseuse folle"
PERFORMER "Antonio Moncada"
INDEX 00 12:19:58
FILE "02 La danseuse folle.wav" WAVE
INDEX 01 00:00:00
TRACK 03 AUDIO
TITLE "Les jardins du delire"
PERFORMER "Antonio Moncada"
INDEX 00 15:27:68
FILE "03 Les jardins du delire.wav" WAVE
INDEX 01 00:00:00
TRACK 04 AUDIO
TITLE "De nativitate (Le chant de l`inquietude)"
PERFORMER "Antonio Moncada"
INDEX 00 15:22:36
FILE "04 De nativitate (Le chant de l`inquietude).wav" WAVE
INDEX 01 00:00:00
TRACK 05 AUDIO
TITLE "Magie du lexique"
PERFORMER "Antonio Moncada"
INDEX 00 09:31:11
FILE "05 Magie du lexique.wav" WAVE
INDEX 01 00:00:00
TRACK 06 AUDIO
TITLE "Trois eclats de temps "
PERFORMER "Antonio Moncada"
INDEX 00 11:30:20
FILE "06 Trois eclats de temps.wav" WAVE
INDEX 01 00:00:00
 
Состав
Antonio Moncada batteria , timpani , percussioni
Stefano Maltese sax , clarinetto basso , flauto , pianoforte
Tony Cattano trombone
Michele Conti violino
Fred Casadei contrabbasso
По всем вопросам пишите личное сообщение пользователю M0p94ok.
10:21
193
Нет комментариев. Ваш будет первым!