Вы используете незарегистрированную версию компонента "Вкладки"!

Поиск

(Rune Grammofon, Avant-Garde Jazz, Free Improvisation) [CD] Spunk - Adventura Botanica - 2014, FLAC (tracks+.cue), lossless

(Rune Grammofon, Avant-Garde Jazz, Free Improvisation) [CD] Spunk - Adventura Botanica - 2014, FLAC (tracks+.cue), lossless
Треклист:
SPUNK
adventura botanica Жанр: Avant-Garde Jazz, Free Improvisation
Страна-производитель диска: Norway
Год издания: 2014
Издатель (лейбл): Rune Grammofon
Номер по каталогу: RCD2163
Аудиокодек: FLAC (*.flac)
Тип рипа: tracks+.cue
Битрейт аудио: lossless
Продолжительность: 48:06
Источник (релизер): спасибо elefantus
Наличие сканов в содержимом раздачи: нет
Треклист:
1. Nymphaea Alba
2. Hepatica Nobilis
3. Trifolium Montanum
 
Лог создания рипа
Exact Audio Copy V1.0 beta 4 from 7. December 2014
EAC extraction logfile from 16. March 2015, 21:33
Spunk / Adventura Botanica
Used drive : HL-DT-STDVDRAM GUC0N Adapter: 1 ID: 0
Read mode : Secure
Utilize accurate stream : Yes
Defeat audio cache : Yes
Make use of C2 pointers : No
Read offset correction : 6
Overread into Lead-In and Lead-Out : No
Fill up missing offset samples with silence : Yes
Delete leading and trailing silent blocks : No
Null samples used in CRC calculations : Yes
Used interface : Native Win32 interface for Win NT & 2000
Gap handling : Appended to previous track
Used output format : User Defined Encoder
Selected bitrate : 1024 kBit/s
Quality : High
Add ID3 tag : No
Command line compressor : C:\Program Files (x86)\Exact Audio Copy\Flac\flac.exe
Additional command line options : -8 -V -T "ARTIST=%artist%" -T "TITLE=%title%" -T "ALBUM=%albumtitle%" -T "DATE=%year%" -T "TRACKNUMBER=%tracknr%" -T "GENRE=%genre%" -T "PERFORMER=%albuminterpret%" -T "COMPOSER=%composer%" %haslyrics%--tag-from-file=LYRICS="%lyricsfile%"%haslyrics% -T "ALBUMARTIST=%albumartist%" -T "DISCNUMBER=%cdnumber%" -T "TOTALDISCS=%totalcds%" -T "TOTALTRACKS=%numtracks%" -T "COMMENT=%comment%" %source% -o %dest%
TOC of the extracted CD
Track | Start | Length | Start sector | End sector
---------------------------------------------------------
1 | 0:00.00 | 22:12.26 | 0 | 99925
2 | 22:12.26 | 8:57.24 | 99926 | 140224
3 | 31:09.50 | 16:56.29 | 140225 | 216453
Track 1
Filename D:\FLAC\01 - Nymphaea Alba.wav
Pre-gap length 0:00:02.00
Peak level 97.7 %
Extraction speed 1.5 X
Track quality 100.0 %
Test CRC F13726BE
Copy CRC F13726BE
Track not present in AccurateRip database
Copy OK
Track 2
Filename D:\FLAC\02 - Hepatica Nobilis.wav
Peak level 84.1 %
Extraction speed 1.9 X
Track quality 100.0 %
Test CRC C5DC73A9
Copy CRC C5DC73A9
Track not present in AccurateRip database
Copy OK
Track 3
Filename D:\FLAC\03 - Trifolium Montanum.wav
Peak level 97.9 %
Extraction speed 0.7 X
Track quality 99.9 %
Test CRC 1C7F60D7
Copy CRC 1C7F60D7
Track not present in AccurateRip database
Copy OK
None of the tracks are present in the AccurateRip database
No errors occurred
End of status report
---- CUETools DB Plugin V2.1.4
[CTDB TOCID: .JhVh_KRpobK11erJ7hNDCRJM3Y-] disk not present in database
Submit result: .JhVh_KRpobK11erJ7hNDCRJM3Y- has been uploaded
==== Log checksum 4FF338AE2313E35FACA7B6B5A7F0ADEF5B27FD6C8F7D80266C47D48785079FE6 ====
 
Содержание индексной карты (.CUE)
REM GENRE Contemporary
REM DATE 2014
REM DISCID 1E0B4603
REM COMMENT "ExactAudioCopy v1.0b4"
PERFORMER "Spunk"
TITLE "Adventura Botanica"
FILE "01 - Nymphaea Alba.wav" WAVE
TRACK 01 AUDIO
TITLE "Nymphaea Alba"
PERFORMER "Spunk"
ISRC NOFGR1463010
INDEX 01 00:00:00
FILE "02 - Hepatica Nobilis.wav" WAVE
TRACK 02 AUDIO
TITLE "Hepatica Nobilis"
PERFORMER "Spunk"
ISRC NOFGR1463020
INDEX 01 00:00:00
FILE "03 - Trifolium Montanum.wav" WAVE
TRACK 03 AUDIO
TITLE "Trifolium Montanum"
PERFORMER "Spunk"
ISRC NOFGR1463030
INDEX 01 00:00:00
 
Об альбоме
Norwegian group Spunk join forces with one of Norway’s leading modern dance exponents, Odd Johan Fritzøe, to create a sound and movement work celebrating Darwin’s legendary, game-changing voyage to Madagascar. Premiered in 2013 at Oslo’s trailblazing Ultima Festival of Contemporary Music, Adventura Botanica was the third collaboration between Spunk and leading choreographer/dancer Odd Johan Fritzøe. Inspired by Darwin, this ‘study of the invisible laws of nature’ featured Fritzøe dancing around a three metre high sculpture set among sonic objects illuminated in white, to resemble the star orchid, which were triggered by radio signals. Spunk provided the accompaniment, feeding off the movements,and allowing their sounds to spontaneously generate in co-evolution with the performance. Spunk recorded the music on this CD in a studio setting around the same time, as a document of the project, but its lush and ever mutating jungle of sounds give a vivid sense of dynamic movement and fertile imaginations as the four musicians extend their sonic probosces into the rich receptacle of the dance amphitheatre. One critic has described SPUNK as like being ‘washed up on some new musical shore’, and just as a shipwrecked sailor has to adapt to a new and unfamiliar environment, so the dancer and the musicians needed to adapt to each other’s systems and the results were mutually beneficial, as is clear from the vigorous life shooting out in all directions from this recording. Formed in 1995, SPUNK comprises four of Norway’s most innovative musicians: Maja S K Ratkje, Hild Sofie Tafjord, Lene Grenager and Kristin Andersen. The quartet combine talents that range from vocal experiments, instrumental virtuosity, impulsive improvisation and a witty sense of play. Here, they engage in vertigo-inducing microtonal slides and exotic, tropical textures, while fans of Ratkje’s incredible solo vocal works will find plenty to enjoy in her whistling, muttering, or operatic singing. All four work in the indefinable area between modern composition, free jazz and total improv,a crossover zone increasingly dominated by Norwegian musicians. A typical SPUNK gig (if there is such a thing) might be a fearsome free-for-all with toys and unexpected objects, or a more formal exploration of texture and tone, as on their massive, 12 year long project Das Wohltemperierte SPUNK, released as a mammoth 6 CD set on Rune Grammofon in 2013. They have played inside installations, dark chambers with 20 sec reverberation, the Oslo Opera House roof and a busy shopping mall. SPUNK seem to want to surprise each other as much as their audience, and in this piece, the music was also the seed that fertilised Fritzøe’s movements, as he took his cue from their intuitive improvisation. Adventura Botanica: it’s the natural selection.
 
Состав

Kristin Andersen trumpet, flutre
Hild Sofie Tafjord french horn
Lene Grenager cello
Maja Solveig Kjelstrup Ratkje voice
По всем вопросам пишите личное сообщение пользователю M0p94ok.
10:21
273
Нет комментариев. Ваш будет первым!