Вы используете незарегистрированную версию компонента "Вкладки"!

Поиск

(Avant-Garde Jazz, Modern Composition) Steuart Liebig & Minim - Sulphur - 2007, FLAC (tracks+.cue), lossless

(Avant-Garde Jazz, Modern Composition) Steuart Liebig & Minim - Sulphur - 2007, FLAC (tracks+.cue), lossless
Треклист:
Steuart Liebig & Minim / Sulphur
Жанр: Avant-Garde Jazz, Modern Composition
Страна-производитель диска: US
Год издания: 2007
Издатель (лейбл): pfMENTUM
Номер по каталогу: CD046
Страна: US
Аудиокодек: FLAC (*.flac)
Тип рипа: tracks+.cue
Битрейт аудио: lossless
Продолжительность: 66:23
Источник (релизер): свой фирменный диск
Наличие сканов в содержимом раздачи: нет
Треклист:
1-23 Kaleidoscope 44:44
24 The Cherry Blossom Is Only Perfect When It's Falling From The Tree 17:16
25 Necrological Pieties 4:16
 
Лог создания рипа
Exact Audio Copy V1.0 beta 3 from 29. August 2011
EAC extraction logfile from 11. December 2012, 23:28
Steuart Liebig/Minim / Sulphur
Used drive : PIONEER DVD-RW DVR-115D Adapter: 0 ID: 0
Read mode : Secure
Utilize accurate stream : Yes
Defeat audio cache : Yes
Make use of C2 pointers : No
Read offset correction : 48
Overread into Lead-In and Lead-Out : No
Fill up missing offset samples with silence : Yes
Delete leading and trailing silent blocks : No
Null samples used in CRC calculations : Yes
Used interface : Installed external ASPI interface
Gap handling : Appended to previous track
Used output format : User Defined Encoder
Selected bitrate : 896 kBit/s
Quality : High
Add ID3 tag : No
Command line compressor : C:\Program Files\Exact Audio Copy\FLAC\FLAC.EXE
Additional command line options : -6 -V -T "ARTIST=%artist%" -T "TITLE=%title%" -T "ALBUM=%albumtitle%" -T "DATE=%year%" -T "TRACKNUMBER=%tracknr%" -T "GENRE=%genre%" -T "COMMENT=%comment%" -T "BAND=%albuminterpret%" -T "COMPOSER=%composer%" %haslyrics%--tag-from-file=LYRICS="%lyricsfile%"%haslyrics% -T "DISCNUMBER=%cdnumber%" -T "TOTALDISCS=%totalcds%" -T "TOTALTRACKS=%numtracks%" %hascover%--picture="%coverfile%"%hascover% %source% -o %dest%
TOC of the extracted CD
Track | Start | Length | Start sector | End sector
---------------------------------------------------------
1 | 0:00.00 | 0:51.25 | 0 | 3849
2 | 0:51.25 | 2:11.41 | 3850 | 13715
3 | 3:02.66 | 1:29.57 | 13716 | 20447
4 | 4:32.48 | 2:24.11 | 20448 | 31258
5 | 6:56.59 | 2:05.64 | 31259 | 40697
6 | 9:02.48 | 2:07.72 | 40698 | 50294
7 | 11:10.45 | 1:22.70 | 50295 | 56514
8 | 12:33.40 | 1:56.28 | 56515 | 65242
9 | 14:29.68 | 2:19.21 | 65243 | 75688
10 | 16:49.14 | 2:09.42 | 75689 | 85405
11 | 18:58.56 | 2:36.07 | 85406 | 97112
12 | 21:34.63 | 1:34.63 | 97113 | 104225
13 | 23:09.51 | 2:48.73 | 104226 | 116898
14 | 25:58.49 | 1:24.56 | 116899 | 123254
15 | 27:23.30 | 1:36.19 | 123255 | 130473
16 | 28:59.49 | 1:58.33 | 130474 | 139356
17 | 30:58.07 | 1:47.34 | 139357 | 147415
18 | 32:45.41 | 2:34.51 | 147416 | 159016
19 | 35:20.17 | 2:10.69 | 159017 | 168835
20 | 37:31.11 | 2:16.26 | 168836 | 179061
21 | 39:47.37 | 2:29.41 | 179062 | 190277
22 | 42:17.03 | 1:29.55 | 190278 | 197007
23 | 43:46.58 | 0:59.70 | 197008 | 201502
24 | 44:46.53 | 17:20.39 | 201503 | 279541
25 | 62:07.17 | 4:16.15 | 279542 | 298756
Track 1
Filename D:\zzz\01 - Kaleidoscope 1.wav
Pre-gap length 0:00:02.00
Peak level 96.6 %
Extraction speed 3.0 X
Track quality 100.0 %
Test CRC D9360938
Copy CRC D9360938
Track not present in AccurateRip database
Copy OK
Track 2
Filename D:\zzz\02 - Kaleidoscope 2.wav
Pre-gap length 0:00:03.00
Peak level 75.7 %
Extraction speed 2.5 X
Track quality 99.7 %
Test CRC 55733858
Copy CRC 55733858
Track not present in AccurateRip database
Copy OK
Track 3
Filename D:\zzz\03 - Kaleidoscope 3.wav
Pre-gap length 0:00:03.00
Peak level 96.6 %
Extraction speed 4.0 X
Track quality 100.0 %
Test CRC 7517FEDE
Copy CRC 7517FEDE
Track not present in AccurateRip database
Copy OK
Track 4
Filename D:\zzz\04 - Kaleidoscope 4.wav
Pre-gap length 0:00:03.00
Peak level 65.8 %
Extraction speed 4.6 X
Track quality 100.0 %
Test CRC F12FD4D6
Copy CRC F12FD4D6
Track not present in AccurateRip database
Copy OK
Track 5
Filename D:\zzz\05 - Kaleidoscope 5.wav
Pre-gap length 0:00:03.00
Peak level 96.6 %
Extraction speed 3.9 X
Track quality 99.9 %
Test CRC 48708B34
Copy CRC 48708B34
Track not present in AccurateRip database
Copy OK
Track 6
Filename D:\zzz\06 - Kaleidoscope 6.wav
Pre-gap length 0:00:03.00
Peak level 96.6 %
Extraction speed 2.9 X
Track quality 99.7 %
Test CRC A29543F1
Copy CRC A29543F1
Track not present in AccurateRip database
Copy OK
Track 7
Filename D:\zzz\07 - Kaleidoscope 7.wav
Pre-gap length 0:00:03.00
Peak level 96.6 %
Extraction speed 4.5 X
Track quality 100.0 %
Test CRC 65D522BD
Copy CRC 65D522BD
Track not present in AccurateRip database
Copy OK
Track 8
Filename D:\zzz\08 - Kaleidoscope 8.wav
Pre-gap length 0:00:03.00
Peak level 96.6 %
Extraction speed 5.1 X
Track quality 100.0 %
Test CRC 2DD8EEA4
Copy CRC 2DD8EEA4
Track not present in AccurateRip database
Copy OK
Track 9
Filename D:\zzz\09 - Kaleidoscope 9.wav
Pre-gap length 0:00:03.00
Peak level 96.6 %
Extraction speed 2.4 X
Track quality 99.6 %
Test CRC E33FBBB2
Copy CRC E33FBBB2
Track not present in AccurateRip database
Copy OK
Track 10
Filename D:\zzz\10 - Kaleidoscope 10.wav
Pre-gap length 0:00:03.00
Peak level 96.6 %
Extraction speed 5.5 X
Track quality 100.0 %
Test CRC A7E4BC95
Copy CRC A7E4BC95
Track not present in AccurateRip database
Copy OK
Track 11
Filename D:\zzz\11 - Kaleidoscope 11.wav
Pre-gap length 0:00:03.00
Peak level 96.6 %
Extraction speed 5.9 X
Track quality 100.0 %
Test CRC F8BBA632
Copy CRC F8BBA632
Track not present in AccurateRip database
Copy OK
Track 12
Filename D:\zzz\12 - Kaleidoscope 12.wav
Pre-gap length 0:00:03.00
Peak level 96.6 %
Extraction speed 5.3 X
Track quality 100.0 %
Test CRC 97D02B43
Copy CRC 97D02B43
Track not present in AccurateRip database
Copy OK
Track 13
Filename D:\zzz\13 - Kaleidoscope 13.wav
Pre-gap length 0:00:03.00
Peak level 96.6 %
Extraction speed 5.4 X
Track quality 99.9 %
Test CRC 072BBDDC
Copy CRC 072BBDDC
Track not present in AccurateRip database
Copy OK
Track 14
Filename D:\zzz\14 - Kaleidoscope 14.wav
Pre-gap length 0:00:03.00
Peak level 96.6 %
Extraction speed 5.5 X
Track quality 100.0 %
Test CRC 9DF56A72
Copy CRC 9DF56A72
Track not present in AccurateRip database
Copy OK
Track 15
Filename D:\zzz\15 - Kaleidoscope 15.wav
Pre-gap length 0:00:03.00
Peak level 88.5 %
Extraction speed 2.7 X
Track quality 99.5 %
Test CRC 10AF006C
Copy CRC 10AF006C
Track not present in AccurateRip database
Copy OK
Track 16
Filename D:\zzz\16 - Kaleidoscope 16.wav
Pre-gap length 0:00:03.00
Peak level 96.6 %
Extraction speed 6.2 X
Track quality 100.0 %
Test CRC 6346558C
Copy CRC 6346558C
Track not present in AccurateRip database
Copy OK
Track 17
Filename D:\zzz\17 - Kaleidoscope 17.wav
Pre-gap length 0:00:03.00
Peak level 93.7 %
Extraction speed 6.1 X
Track quality 100.0 %
Test CRC 387233AB
Copy CRC 387233AB
Track not present in AccurateRip database
Copy OK
Track 18
Filename D:\zzz\18 - Kaleidoscope 18.wav
Pre-gap length 0:00:03.00
Peak level 96.6 %
Extraction speed 5.7 X
Track quality 99.9 %
Test CRC 9AD5115C
Copy CRC 9AD5115C
Track not present in AccurateRip database
Copy OK
Track 19
Filename D:\zzz\19 - Kaleidoscope 19.wav
Pre-gap length 0:00:03.00
Peak level 96.6 %
Extraction speed 6.7 X
Track quality 100.0 %
Test CRC F8B01F1F
Copy CRC F8B01F1F
Track not present in AccurateRip database
Copy OK
Track 20
Filename D:\zzz\20 - Kaleidoscope 20.wav
Pre-gap length 0:00:03.00
Peak level 96.6 %
Extraction speed 6.8 X
Track quality 100.0 %
Test CRC 8997593B
Copy CRC 8997593B
Track not present in AccurateRip database
Copy OK
Track 21
Filename D:\zzz\21 - Kaleidoscope 21.wav
Pre-gap length 0:00:03.00
Peak level 96.6 %
Extraction speed 7.1 X
Track quality 100.0 %
Test CRC 9B525D07
Copy CRC 9B525D07
Track not present in AccurateRip database
Copy OK
Track 22
Filename D:\zzz\22 - Kaleidoscope 22.wav
Pre-gap length 0:00:03.00
Peak level 70.0 %
Extraction speed 6.3 X
Track quality 100.0 %
Test CRC 09743898
Copy CRC 09743898
Track not present in AccurateRip database
Copy OK
Track 23
Filename D:\zzz\23 - Kaleidoscope 23.wav
Pre-gap length 0:00:03.00
Peak level 96.6 %
Extraction speed 5.6 X
Track quality 100.0 %
Test CRC 545A02A5
Copy CRC 545A02A5
Track not present in AccurateRip database
Copy OK
Track 24
Filename D:\zzz\24 - The Cherry Blossom Is Only Perfect When It's Falling From The Tree.wav
Pre-gap length 0:00:05.00
Peak level 96.6 %
Extraction speed 9.2 X
Track quality 100.0 %
Test CRC B5EE05AC
Copy CRC B5EE05AC
Track not present in AccurateRip database
Copy OK
Track 25
Filename D:\zzz\25 - Necrological Pieties.wav
Pre-gap length 0:00:05.00
Peak level 96.6 %
Extraction speed 7.0 X
Track quality 99.9 %
Test CRC B0C2D3FA
Copy CRC B0C2D3FA
Track not present in AccurateRip database
Copy OK
None of the tracks are present in the AccurateRip database
No errors occurred
End of status report
==== Log checksum 03CACABD257C71DD96D98A6CAA006DCD29B5126D9FDF649D567CE507C248FEF2 ====
 
Содержание индексной карты (.CUE)
REM GENRE Avantgarde
REM DATE 2007
REM DISCID 620F8F19
REM COMMENT "ExactAudioCopy v1.0b3"
PERFORMER "Steuart Liebig/Minim"
TITLE "Sulphur"
FILE "01 - Kaleidoscope 1.wav" WAVE
TRACK 01 AUDIO
TITLE "Kaleidoscope 1"
PERFORMER "Steuart Liebig/Minim"
INDEX 01 00:00:00
TRACK 02 AUDIO
TITLE "Kaleidoscope 2"
PERFORMER "Steuart Liebig/Minim"
INDEX 00 00:48:25
FILE "02 - Kaleidoscope 2.wav" WAVE
INDEX 01 00:00:00
TRACK 03 AUDIO
TITLE "Kaleidoscope 3"
PERFORMER "Steuart Liebig/Minim"
INDEX 00 02:08:41
FILE "03 - Kaleidoscope 3.wav" WAVE
INDEX 01 00:00:00
TRACK 04 AUDIO
TITLE "Kaleidoscope 4"
PERFORMER "Steuart Liebig/Minim"
INDEX 00 01:26:57
FILE "04 - Kaleidoscope 4.wav" WAVE
INDEX 01 00:00:00
TRACK 05 AUDIO
TITLE "Kaleidoscope 5"
PERFORMER "Steuart Liebig/Minim"
INDEX 00 02:21:11
FILE "05 - Kaleidoscope 5.wav" WAVE
INDEX 01 00:00:00
TRACK 06 AUDIO
TITLE "Kaleidoscope 6"
PERFORMER "Steuart Liebig/Minim"
INDEX 00 02:02:64
FILE "06 - Kaleidoscope 6.wav" WAVE
INDEX 01 00:00:00
TRACK 07 AUDIO
TITLE "Kaleidoscope 7"
PERFORMER "Steuart Liebig/Minim"
INDEX 00 02:04:72
FILE "07 - Kaleidoscope 7.wav" WAVE
INDEX 01 00:00:00
TRACK 08 AUDIO
TITLE "Kaleidoscope 8"
PERFORMER "Steuart Liebig/Minim"
INDEX 00 01:19:70
FILE "08 - Kaleidoscope 8.wav" WAVE
INDEX 01 00:00:00
TRACK 09 AUDIO
TITLE "Kaleidoscope 9"
PERFORMER "Steuart Liebig/Minim"
INDEX 00 01:53:28
FILE "09 - Kaleidoscope 9.wav" WAVE
INDEX 01 00:00:00
TRACK 10 AUDIO
TITLE "Kaleidoscope 10"
PERFORMER "Steuart Liebig/Minim"
INDEX 00 02:16:21
FILE "10 - Kaleidoscope 10.wav" WAVE
INDEX 01 00:00:00
TRACK 11 AUDIO
TITLE "Kaleidoscope 11"
PERFORMER "Steuart Liebig/Minim"
INDEX 00 02:06:42
FILE "11 - Kaleidoscope 11.wav" WAVE
INDEX 01 00:00:00
TRACK 12 AUDIO
TITLE "Kaleidoscope 12"
PERFORMER "Steuart Liebig/Minim"
INDEX 00 02:33:07
FILE "12 - Kaleidoscope 12.wav" WAVE
INDEX 01 00:00:00
TRACK 13 AUDIO
TITLE "Kaleidoscope 13"
PERFORMER "Steuart Liebig/Minim"
INDEX 00 01:31:63
FILE "13 - Kaleidoscope 13.wav" WAVE
INDEX 01 00:00:00
TRACK 14 AUDIO
TITLE "Kaleidoscope 14"
PERFORMER "Steuart Liebig/Minim"
INDEX 00 02:45:73
FILE "14 - Kaleidoscope 14.wav" WAVE
INDEX 01 00:00:00
TRACK 15 AUDIO
TITLE "Kaleidoscope 15"
PERFORMER "Steuart Liebig/Minim"
INDEX 00 01:21:56
FILE "15 - Kaleidoscope 15.wav" WAVE
INDEX 01 00:00:00
TRACK 16 AUDIO
TITLE "Kaleidoscope 16"
PERFORMER "Steuart Liebig/Minim"
INDEX 00 01:33:19
FILE "16 - Kaleidoscope 16.wav" WAVE
INDEX 01 00:00:00
TRACK 17 AUDIO
TITLE "Kaleidoscope 17"
PERFORMER "Steuart Liebig/Minim"
INDEX 00 01:55:33
FILE "17 - Kaleidoscope 17.wav" WAVE
INDEX 01 00:00:00
TRACK 18 AUDIO
TITLE "Kaleidoscope 18"
PERFORMER "Steuart Liebig/Minim"
INDEX 00 01:44:34
FILE "18 - Kaleidoscope 18.wav" WAVE
INDEX 01 00:00:00
TRACK 19 AUDIO
TITLE "Kaleidoscope 19"
PERFORMER "Steuart Liebig/Minim"
INDEX 00 02:31:51
FILE "19 - Kaleidoscope 19.wav" WAVE
INDEX 01 00:00:00
TRACK 20 AUDIO
TITLE "Kaleidoscope 20"
PERFORMER "Steuart Liebig/Minim"
INDEX 00 02:07:69
FILE "20 - Kaleidoscope 20.wav" WAVE
INDEX 01 00:00:00
TRACK 21 AUDIO
TITLE "Kaleidoscope 21"
PERFORMER "Steuart Liebig/Minim"
INDEX 00 02:13:26
FILE "21 - Kaleidoscope 21.wav" WAVE
INDEX 01 00:00:00
TRACK 22 AUDIO
TITLE "Kaleidoscope 22"
PERFORMER "Steuart Liebig/Minim"
INDEX 00 02:26:41
FILE "22 - Kaleidoscope 22.wav" WAVE
INDEX 01 00:00:00
TRACK 23 AUDIO
TITLE "Kaleidoscope 23"
PERFORMER "Steuart Liebig/Minim"
INDEX 00 01:26:55
FILE "23 - Kaleidoscope 23.wav" WAVE
INDEX 01 00:00:00
TRACK 24 AUDIO
TITLE "The Cherry Blossom Is Only Perfect When It's Falling From The Tree"
PERFORMER "Steuart Liebig/Minim"
INDEX 00 00:54:70
FILE "24 - The Cherry Blossom Is Only Perfect When It's Falling From The Tree.wav" WAVE
INDEX 01 00:00:00
TRACK 25 AUDIO
TITLE "Necrological Pieties"
PERFORMER "Steuart Liebig/Minim"
INDEX 00 17:15:39
FILE "25 - Necrological Pieties.wav" WAVE
INDEX 01 00:00:00
 
Лог проверки качества
d:\>d:\aucdtect -d/-m0 d:\zzz\*.wav
auCDtect: CD records authenticity detector, version 0.8.2
Copyright (c) 2004 Oleg Berngardt. All rights reserved.
Copyright (c) 2004 Alexander Djourik. All rights reserved.
------------------------------------------------------------
Processing file: [01. Kaleidoscope 1.wav]
------------------------------------------------------------
This track looks like CDDA with probability 100%
------------------------------------------------------------
Processing file: [02. Kaleidoscope 2.wav]
------------------------------------------------------------
This track looks like CDDA with probability 100%
------------------------------------------------------------
Processing file: [03. Kaleidoscope 3.wav]
------------------------------------------------------------
This track looks like CDDA with probability 100%
------------------------------------------------------------
Processing file: [04. Kaleidoscope 4.wav]
------------------------------------------------------------
This track looks like CDDA with probability 100%
------------------------------------------------------------
Processing file: [05. Kaleidoscope 5.wav]
------------------------------------------------------------
This track looks like CDDA with probability 100%
------------------------------------------------------------
Processing file: [06. Kaleidoscope 6.wav]
------------------------------------------------------------
This track looks like CDDA with probability 100%
------------------------------------------------------------
Processing file: [07. Kaleidoscope 7.wav]
------------------------------------------------------------
This track looks like CDDA with probability 100%
------------------------------------------------------------
Processing file: [08. Kaleidoscope 8.wav]
------------------------------------------------------------
This track looks like CDDA with probability 100%
------------------------------------------------------------
Processing file: [09. Kaleidoscope 9.wav]
------------------------------------------------------------
This track looks like CDDA with probability 100%
------------------------------------------------------------
Processing file: [10. Kaleidoscope 10.wav]
------------------------------------------------------------
This track looks like CDDA with probability 100%
------------------------------------------------------------
Processing file: [11. Kaleidoscope 11.wav]
------------------------------------------------------------
This track looks like CDDA with probability 99%
------------------------------------------------------------
Processing file: [12. Kaleidoscope 12.wav]
------------------------------------------------------------
This track looks like CDDA with probability 100%
------------------------------------------------------------
Processing file: [13. Kaleidoscope 13.wav]
------------------------------------------------------------
This track looks like CDDA with probability 100%
------------------------------------------------------------
Processing file: [14. Kaleidoscope 14.wav]
------------------------------------------------------------
This track looks like CDDA with probability 100%
------------------------------------------------------------
Processing file: [15. Kaleidoscope 15.wav]
------------------------------------------------------------
This track looks like CDDA with probability 99%
------------------------------------------------------------
Processing file: [16. Kaleidoscope 16.wav]
------------------------------------------------------------
This track looks like CDDA with probability 99%
------------------------------------------------------------
Processing file: [17. Kaleidoscope 17.wav]
------------------------------------------------------------
This track looks like CDDA with probability 100%
------------------------------------------------------------
Processing file: [18. Kaleidoscope 18.wav]
------------------------------------------------------------
This track looks like CDDA with probability 100%
------------------------------------------------------------
Processing file: [19. Kaleidoscope 19.wav]
------------------------------------------------------------
This track looks like CDDA with probability 100%
------------------------------------------------------------
Processing file: [20. Kaleidoscope 20.wav]
------------------------------------------------------------
This track looks like CDDA with probability 100%
------------------------------------------------------------
Processing file: [21. Kaleidoscope 21.wav]
------------------------------------------------------------
Could not qualify the source of this track.
------------------------------------------------------------
Processing file: [22. Kaleidoscope 22.wav]
------------------------------------------------------------
This track looks like CDDA with probability 100%
------------------------------------------------------------
Processing file: [23. Kaleidoscope 23.wav]
------------------------------------------------------------
This track looks like CDDA with probability 100%
------------------------------------------------------------
Processing file: [24. The Cherry Blossom Is Only Perfect When It's Falling From The Tree.wav]
------------------------------------------------------------
This track looks like CDDA with probability 85%
------------------------------------------------------------
Processing file: [25. Necrological Pieties.wav]
------------------------------------------------------------
This track looks like CDDA with probability 100%
------------------------------------------------------------
Final Conclusion:
------------------------------------------------------------
These tracks looks like CDDA with probability 100%
Доп. информация:
 
AMG Review
The music of composer and bassist Steuart Liebig frequently has the sound of freely improvised avant-garde jazz, and while his band Minim is called on to improvise in one of the pieces, his music is often constructed and structured using sophisticated pre-compositional procedures. The makeup of the ensemble contributes to the jazz sound -- Minim's members are Andrew Pask on clarinets, Sara Schoenbeck on bassoon, and percussionist Brad Dutz, with the composer playing a variety of bass guitars. Each of Kaleidoscope's 23 very short movements is based on the poetic structure of Haiku, and the scoring includes solos, duets, and trios in addition to the full quartet. Liebig's creative use of extended instrumental techniques and various timbral combinations keep the piece moving. The longer, single-movement The cherry blossom is only perfect when it's falling from the tree also uses Haiku as a structural determinant, and has a more conventionally "new music" sound -- the instruments' largely independent, apparently unrelated lines create a sense of barely controlled chaos that keeps the attentive listener focused on its unpredictable development, and recurring sections provide some sense of orientation. The brief Necrological Pieties, with a title taken from Borges, creates a variety of timbres by exploring extended techniques using an expanded percussion battery. Minim plays with assurance and conviction. The album should be of interest to fans of crossover music blending elements of free jazz and classical avant-garde.
 
Состав
Bass [C, Eb, 12-string And Prepared Contrabassguitars], Photography [Other], Layout – Steuart Liebig
Bassoon – Sara Schoenbeck
Clarinet, Bass Clarinet – Andrew Pask
Drums [Drumset], Percussion, Marimba – Brad Dutz
Any questions -> support@pro-jazz.com. По всем вопросам пишите -> support@pro-jazz.com
06:20
155
Нет комментариев. Ваш будет первым!