Вы используете незарегистрированную версию компонента "Вкладки"!

Поиск

(Avant-Garde Jazz, Free Improvisation) Mongezi Feza & Bernt Rosengren Quartet - Free Jam {2CD} - 2004, FLAC (tracks+.cue), lossless

(Avant-Garde Jazz, Free Improvisation) Mongezi Feza & Bernt Rosengren Quartet - Free Jam {2CD} - 2004, FLAC (tracks+.cue), lossless
Треклист:
•Mongezi Feza & Bernt Rosengren Quartet - Free Jam {2CD}•
Жанр: Avant-Garde Jazz, Free Improvisation
Год издания: 2004
Издатель (лейбл): Ayler Records
Номер по каталогу: aylCD-048/049
Аудиокодек: FLAC (*.flac)
Тип рипа: tracks+.cue
Битрейт аудио: lossless
Продолжительность: 01:59:15
Источник (релизер): Рипы с дисков.
Наличие сканов в содержимом раздачи: да
 
CD1 - 01:00:22
Треклист:

01.Theme Of The Day I {39:18}
02.Group Notes I {07:47}
03.Group Notes II {13:16}
 
Лог создания рипа
Exact Audio Copy V1.0 beta 3 from 29. August 2011
Отчёт EAC об извлечении, выполненном 10. декабря 2012, 16:47
Mongezi Feza & Bernt Rosengren Quartet / Free Jam (CD1)
Дисковод: Optiarc DVD RW AD-5200A Adapter: 0 ID: 0
Режим чтения : Достоверность
Использование точного потока : Да
Отключение кэша аудио : Да
Использование указателей C2 : Нет
Коррекция смещения при чтении : 48
Способность читать области Lead-in и Lead-out : Нет
Заполнение пропущенных сэмплов тишиной : Да
Удаление блоков с тишиной в начале и конце : Нет
При вычислениях CRC использовались нулевые сэмплы : Да
Интерфейс : Встроенный Win32-интерфейс для Win NT/2000
Обработка зазоров : Добавлено к предыдущему треку
Выходной формат : Пользовательский кодировщик
Выбранный битрейт : 128 kBit/s
Качество : Высокий
Добавление ID3-тега : Нет
Утилита сжатия : C:\Program Files\Exact Audio Copy\Flac\flac.exe
Дополнительные параметры : -V -8 -T "Genre=%genre%" -T "Artist=%artist%" -T "Title=%title%" -T "Album=%albumtitle%" -T "Date=%year%" -T "Tracknumber=%tracknr%" -T "Comment=%comment%" %source%
TOC извлечённого CD
Трек | Старт | Длительность | Начальный сектор | Конечный сектор
---------------------------------------------------------------------
1 | 0:00.00 | 39:18.32 | 0 | 176881
2 | 39:18.32 | 7:47.52 | 176882 | 211958
3 | 47:06.09 | 13:16.05 | 211959 | 271663
Трек 1
Имя файла F:\2004.Mongezi Feza - Free Jam (2CD)\CD1\01. Theme Of The Day I.wav
Длина предзазора 0:00:02.00
Пиковый уровень 98.6 %
Скорость извлечения 3.3 X
Качество трека 100.0 %
CRC теста F903CA26
CRC копии F903CA26
Точность не определена (достоверность 1) [ADEF9BE6], AccurateRip вернул [5044BB8A] (AR v2)
Копирование... OK
Трек 2
Имя файла F:\2004.Mongezi Feza - Free Jam (2CD)\CD1\02. Group Notes I.wav
Длина предзазора 0:00:02.00
Пиковый уровень 98.4 %
Скорость извлечения 3.7 X
Качество трека 100.0 %
CRC теста D188DCC2
CRC копии D188DCC2
Точность не определена (достоверность 1) [BBDFB074], AccurateRip вернул [2F751DF4] (AR v2)
Копирование... OK
Трек 3
Имя файла F:\2004.Mongezi Feza - Free Jam (2CD)\CD1\03. Group Notes II.wav
Длина предзазора 0:00:02.00
Пиковый уровень 98.7 %
Скорость извлечения 3.9 X
Качество трека 100.0 %
CRC теста 2624EA21
CRC копии 2624EA21
Точность не определена (достоверность 1) [ED6B54AC], AccurateRip вернул [5739A532] (AR v2)
Копирование... OK
Ни один трек не прошёл проверки на точность
В вашей базе может быть иной вариант штамповки диска
Ошибок не произошло
Конец отчёта
==== Контрольная сумма отчёта 63AC3B8FF18785969480A1E4C5F398096F5BEF04E9D8ABA59DBD24634CBA05B7 ====
 
Содержание индексной карты (.CUE)
REM GENRE Jazz
REM DATE 2004
REM DISCID 210E2603
REM COMMENT "ExactAudioCopy v1.0b3"
PERFORMER "Mongezi Feza & Bernt Rosengren Quartet"
TITLE "Free Jam (CD1)"
FILE "01. Theme Of The Day I.wav" WAVE
TRACK 01 AUDIO
TITLE "Theme Of The Day I"
PERFORMER "Mongezi Feza & Bernt Rosengren Quartet"
FLAGS DCP
INDEX 01 00:00:00
TRACK 02 AUDIO
TITLE "Group Notes I"
PERFORMER "Mongezi Feza & Bernt Rosengren Quartet"
FLAGS DCP
INDEX 00 39:16:32
FILE "02. Group Notes I.wav" WAVE
INDEX 01 00:00:00
TRACK 03 AUDIO
TITLE "Group Notes II"
PERFORMER "Mongezi Feza & Bernt Rosengren Quartet"
FLAGS DCP
INDEX 00 07:45:52
FILE "03. Group Notes II.wav" WAVE
INDEX 01 00:00:00
 
CD2 - 00:58:53
Треклист:

01.Theme Of The Day II {05:19}
02.Moong's Research I {04:09}
03.Group Notes III {21:10}
04.Moong's Research II {05:25}
05.Moong's Research III {04:21}
06.Moong's Research IV {04:06}
07.Group Notes IV {14:20}
 
Лог создания рипа
Exact Audio Copy V1.0 beta 3 from 29. August 2011
Отчёт EAC об извлечении, выполненном 10. декабря 2012, 20:29
Mongezi Feza & Bernt Rosengren Quartet / Free Jam (CD2)
Дисковод: Optiarc DVD RW AD-5200A Adapter: 0 ID: 0
Режим чтения : Достоверность
Использование точного потока : Да
Отключение кэша аудио : Да
Использование указателей C2 : Нет
Коррекция смещения при чтении : 48
Способность читать области Lead-in и Lead-out : Нет
Заполнение пропущенных сэмплов тишиной : Да
Удаление блоков с тишиной в начале и конце : Нет
При вычислениях CRC использовались нулевые сэмплы : Да
Интерфейс : Встроенный Win32-интерфейс для Win NT/2000
Обработка зазоров : Добавлено к предыдущему треку
Выходной формат : Пользовательский кодировщик
Выбранный битрейт : 128 kBit/s
Качество : Высокий
Добавление ID3-тега : Нет
Утилита сжатия : C:\Program Files\Exact Audio Copy\Flac\flac.exe
Дополнительные параметры : -V -8 -T "Genre=%genre%" -T "Artist=%artist%" -T "Title=%title%" -T "Album=%albumtitle%" -T "Date=%year%" -T "Tracknumber=%tracknr%" -T "Comment=%comment%" %source%
TOC извлечённого CD
Трек | Старт | Длительность | Начальный сектор | Конечный сектор
---------------------------------------------------------------------
1 | 0:00.00 | 5:19.13 | 0 | 23937
2 | 5:19.13 | 4:09.53 | 23938 | 42665
3 | 9:28.66 | 21:10.13 | 42666 | 137928
4 | 30:39.04 | 5:25.02 | 137929 | 162305
5 | 36:04.06 | 4:21.45 | 162306 | 181925
6 | 40:25.51 | 4:06.58 | 181926 | 200433
7 | 44:32.34 | 14:20.74 | 200434 | 265007
Трек 1
Имя файла F:\2004.Mongezi Feza - Free Jam (2CD)\CD2\01. Theme Of The Day II.wav
Длина предзазора 0:00:02.00
Пиковый уровень 98.7 %
Скорость извлечения 2.4 X
Качество трека 100.0 %
CRC теста 06D964E3
CRC копии 06D964E3
Точность не определена (достоверность 1) [768D49F5], AccurateRip вернул [EFB4A5D8] (AR v2)
Копирование... OK
Трек 2
Имя файла F:\2004.Mongezi Feza - Free Jam (2CD)\CD2\02. Moong's Research I.wav
Длина предзазора 0:00:02.00
Пиковый уровень 98.3 %
Скорость извлечения 2.6 X
Качество трека 100.0 %
CRC теста 616FC6FD
CRC копии 616FC6FD
Точность не определена (достоверность 1) [52EF5EAF], AccurateRip вернул [4D7F58AD] (AR v2)
Копирование... OK
Трек 3
Имя файла F:\2004.Mongezi Feza - Free Jam (2CD)\CD2\03. Group Notes III.wav
Длина предзазора 0:00:02.00
Пиковый уровень 98.7 %
Скорость извлечения 3.5 X
Качество трека 100.0 %
CRC теста 004E983E
CRC копии 004E983E
Точность не определена (достоверность 1) [E0C4B8B1], AccurateRip вернул [65308460] (AR v2)
Копирование... OK
Трек 4
Имя файла F:\2004.Mongezi Feza - Free Jam (2CD)\CD2\04. Moong's Research II.wav
Длина предзазора 0:00:02.00
Пиковый уровень 98.7 %
Скорость извлечения 3.3 X
Качество трека 99.9 %
CRC теста CC525DE3
CRC копии CC525DE3
Точность не определена (достоверность 1) [93347ACA], AccurateRip вернул [72A79059] (AR v2)
Копирование... OK
Трек 5
Имя файла F:\2004.Mongezi Feza - Free Jam (2CD)\CD2\05. Moong's Research III.wav
Длина предзазора 0:00:02.00
Пиковый уровень 98.4 %
Скорость извлечения 3.1 X
Качество трека 99.9 %
CRC теста A845BB42
CRC копии A845BB42
Точность не определена (достоверность 1) [92964725], AccurateRip вернул [716F6F09] (AR v2)
Копирование... OK
Трек 6
Имя файла F:\2004.Mongezi Feza - Free Jam (2CD)\CD2\06. Moong's Research IV.wav
Длина предзазора 0:00:02.00
Пиковый уровень 98.7 %
Скорость извлечения 3.5 X
Качество трека 100.0 %
CRC теста 9CF4242C
CRC копии 9CF4242C
Точность не определена (достоверность 1) [AF233F8C], AccurateRip вернул [53C58772] (AR v2)
Копирование... OK
Трек 7
Имя файла F:\2004.Mongezi Feza - Free Jam (2CD)\CD2\07. Group Notes IV.wav
Длина предзазора 0:00:02.00
Пиковый уровень 98.7 %
Скорость извлечения 3.8 X
Качество трека 100.0 %
CRC теста BC55A94D
CRC копии BC55A94D
Точность не определена (достоверность 1) [B991D4F0], AccurateRip вернул [A8E3876E] (AR v2)
Копирование... OK
Ни один трек не прошёл проверки на точность
В вашей базе может быть иной вариант штамповки диска
Ошибок не произошло
Конец отчёта
==== Контрольная сумма отчёта D11607E5D454328D9F93D6CE7AC857F539F81C754EBEB54DE92B08B930E84D05 ====
 
Содержание индексной карты (.CUE)
REM GENRE Jazz
REM DATE 2004
REM DISCID 530DCD07
REM COMMENT "ExactAudioCopy v1.0b3"
PERFORMER "Mongezi Feza & Bernt Rosengren Quartet"
TITLE "Free Jam (CD2)"
FILE "01. Theme Of The Day II.wav" WAVE
TRACK 01 AUDIO
TITLE "Theme Of The Day II"
PERFORMER "Mongezi Feza & Bernt Rosengren Quartet"
FLAGS DCP
INDEX 01 00:00:00
TRACK 02 AUDIO
TITLE "Moong's Research I"
PERFORMER "Mongezi Feza & Bernt Rosengren Quartet"
FLAGS DCP
INDEX 00 05:17:13
FILE "02. Moong's Research I.wav" WAVE
INDEX 01 00:00:00
TRACK 03 AUDIO
TITLE "Group Notes III"
PERFORMER "Mongezi Feza & Bernt Rosengren Quartet"
FLAGS DCP
INDEX 00 04:07:53
FILE "03. Group Notes III.wav" WAVE
INDEX 01 00:00:00
TRACK 04 AUDIO
TITLE "Moong's Research II"
PERFORMER "Mongezi Feza & Bernt Rosengren Quartet"
FLAGS DCP
INDEX 00 21:08:13
FILE "04. Moong's Research II.wav" WAVE
INDEX 01 00:00:00
TRACK 05 AUDIO
TITLE "Moong's Research III"
PERFORMER "Mongezi Feza & Bernt Rosengren Quartet"
FLAGS DCP
INDEX 00 05:23:02
FILE "05. Moong's Research III.wav" WAVE
INDEX 01 00:00:00
TRACK 06 AUDIO
TITLE "Moong's Research IV"
PERFORMER "Mongezi Feza & Bernt Rosengren Quartet"
FLAGS DCP
INDEX 00 04:19:45
FILE "06. Moong's Research IV.wav" WAVE
INDEX 01 00:00:00
TRACK 07 AUDIO
TITLE "Group Notes IV"
PERFORMER "Mongezi Feza & Bernt Rosengren Quartet"
FLAGS DCP
INDEX 00 04:04:58
FILE "07. Group Notes IV.wav" WAVE
INDEX 01 00:00:00
 
Состав
Mongezi Feza - tp
Bernt Rosengren - as, ts, fl, p
Tommy Koverhult - ts, fl, euphonium
Torbjorn Hultcrantz - b
Leif Wennerstrom - dr
Okay Temiz - perc.
Any questions -> support@pro-jazz.com. По всем вопросам пишите -> support@pro-jazz.com
06:21
183
Нет комментариев. Ваш будет первым!