Вы используете незарегистрированную версию компонента "Вкладки"!

Поиск

(Avant-Garde Jazz, Modern Composition) John Shiurba (w/ Kyle Bruckmann, Matthew Sperry, Gino Robair) - Triplicate - 2002, FLAC (tracks+.cue), lossless

(Avant-Garde Jazz, Modern Composition) John Shiurba (w/ Kyle Bruckmann, Matthew Sperry, Gino Robair) - Triplicate - 2002, FLAC (tracks+.cue), lossless
Треклист:
John Shiurba / Triplicate
Жанр: Avant-Garde Jazz, Modern Composition
Страна-производитель диска: Canada
Год издания: 2002
Издатель (лейбл): Spool
Номер по каталогу: ARC 2/SPA402
Страна: US
Аудиокодек: FLAC (*.flac)
Тип рипа: tracks+.cue
Битрейт аудио: lossless
Продолжительность: 55:43
Источник (релизер): свой фирменный диск
Наличие сканов в содержимом раздачи:
Треклист:
1. Adobe 8:54
2. Trainging Long Hauling-Dazed 7:06
3. Short Reels 13:21
4. I Knew You Falling 12:16
5. Rita 13:44
 
Лог создания рипа
Exact Audio Copy V1.0 beta 3 from 29. August 2011
EAC extraction logfile from 17. November 2013, 21:58
John Shiurba / Triplicate
Used drive : PIONEER DVD-RW DVR-115D Adapter: 0 ID: 0
Read mode : Secure
Utilize accurate stream : Yes
Defeat audio cache : Yes
Make use of C2 pointers : No
Read offset correction : 48
Overread into Lead-In and Lead-Out : No
Fill up missing offset samples with silence : Yes
Delete leading and trailing silent blocks : No
Null samples used in CRC calculations : Yes
Used interface : Installed external ASPI interface
Gap handling : Appended to previous track
Used output format : User Defined Encoder
Selected bitrate : 896 kBit/s
Quality : High
Add ID3 tag : No
Command line compressor : C:\Program Files\Exact Audio Copy\FLAC\FLAC.EXE
Additional command line options : -6 -V -T "ARTIST=%artist%" -T "TITLE=%title%" -T "ALBUM=%albumtitle%" -T "DATE=%year%" -T "TRACKNUMBER=%tracknr%" -T "GENRE=%genre%" -T "COMMENT=%comment%" -T "BAND=%albuminterpret%" -T "COMPOSER=%composer%" %haslyrics%--tag-from-file=LYRICS="%lyricsfile%"%haslyrics% -T "DISCNUMBER=%cdnumber%" -T "TOTALDISCS=%totalcds%" -T "TOTALTRACKS=%numtracks%" %hascover%--picture="%coverfile%"%hascover% %source% -o %dest%
TOC of the extracted CD
Track | Start | Length | Start sector | End sector
---------------------------------------------------------
1 | 0:00.00 | 8:59.33 | 0 | 40457
2 | 8:59.33 | 7:11.38 | 40458 | 72820
3 | 16:10.71 | 13:26.36 | 72821 | 133306
4 | 29:37.32 | 12:21.50 | 133307 | 188931
5 | 41:59.07 | 13:44.54 | 188932 | 250785
Track 1
Filename D:\zzz\01 - Adobe.wav
Pre-gap length 0:00:02.00
Peak level 97.7 %
Extraction speed 4.9 X
Track quality 100.0 %
Test CRC 85322BD8
Copy CRC 85322BD8
Track not present in AccurateRip database
Copy OK
Track 2
Filename D:\zzz\02 - Trainging Long Hauling-Dazed.wav
Pre-gap length 0:00:04.60
Peak level 87.1 %
Extraction speed 5.7 X
Track quality 100.0 %
Test CRC 9D2EA5DC
Copy CRC 9D2EA5DC
Track not present in AccurateRip database
Copy OK
Track 3
Filename D:\zzz\03 - Short Reels.wav
Pre-gap length 0:00:04.60
Peak level 97.7 %
Extraction speed 6.7 X
Track quality 100.0 %
Test CRC FB932E67
Copy CRC FB932E67
Track not present in AccurateRip database
Copy OK
Track 4
Filename D:\zzz\04 - I Knew You Falling.wav
Pre-gap length 0:00:04.60
Peak level 97.7 %
Extraction speed 7.3 X
Track quality 99.9 %
Test CRC 15C3FFCE
Copy CRC 15C3FFCE
Track not present in AccurateRip database
Copy OK
Track 5
Filename D:\zzz\05 - Rita.wav
Pre-gap length 0:00:04.60
Peak level 100.0 %
Extraction speed 8.4 X
Track quality 100.0 %
Test CRC B65E5036
Copy CRC B65E5036
Track not present in AccurateRip database
Copy OK
None of the tracks are present in the AccurateRip database
No errors occurred
End of status report
==== Log checksum E69F04610D097E4CC41EB562FFD3D2D098F53FF6E7DAD7EDC9D741800DAE1DCA ====
 
Содержание индексной карты (.CUE)
REM GENRE Avant-Garde
REM DATE 2002
REM DISCID 400D0F05
REM COMMENT "ExactAudioCopy v1.0b3"
PERFORMER "John Shiurba"
TITLE "Triplicate"
FILE "01 - Adobe.wav" WAVE
TRACK 01 AUDIO
TITLE "Adobe"
PERFORMER "John Shiurba"
FLAGS DCP
INDEX 01 00:00:00
TRACK 02 AUDIO
TITLE "Trainging Long Hauling-Dazed"
PERFORMER "John Shiurba"
FLAGS DCP
INDEX 00 08:54:48
FILE "02 - Trainging Long Hauling-Dazed.wav" WAVE
INDEX 01 00:00:00
TRACK 03 AUDIO
TITLE "Short Reels"
PERFORMER "John Shiurba"
FLAGS DCP
INDEX 00 07:06:53
FILE "03 - Short Reels.wav" WAVE
INDEX 01 00:00:00
TRACK 04 AUDIO
TITLE "I Knew You Falling"
PERFORMER "John Shiurba"
FLAGS DCP
INDEX 00 13:21:51
FILE "04 - I Knew You Falling.wav" WAVE
INDEX 01 00:00:00
TRACK 05 AUDIO
TITLE "Rita"
PERFORMER "John Shiurba"
FLAGS DCP
INDEX 00 12:16:65
FILE "05 - Rita.wav" WAVE
INDEX 01 00:00:00
 
Лог проверки качества
d:\>d:\aucdtect -d/-m0 d:\zzz\*.wav
auCDtect: CD records authenticity detector, version 0.8.2
Copyright (c) 2004 Oleg Berngardt. All rights reserved.
Copyright (c) 2004 Alexander Djourik. All rights reserved.
------------------------------------------------------------
Processing file: [01. Adobe.wav]
------------------------------------------------------------
This track looks like CDDA with probability 100%
------------------------------------------------------------
Processing file: [02. Trainging Long Hauling-Dazed.wav]
------------------------------------------------------------
This track looks like CDDA with probability 62%
------------------------------------------------------------
Processing file: [03. Short Reels.wav]
------------------------------------------------------------
This track looks like CDDA with probability 100%
------------------------------------------------------------
Processing file: [04. I Knew You Falling.wav]
------------------------------------------------------------
This track looks like CDDA with probability 100%
------------------------------------------------------------
Processing file: [05. Rita.wav]
------------------------------------------------------------
This track looks like CDDA with probability 92%
------------------------------------------------------------
Final Conclusion:
------------------------------------------------------------
These tracks looks like CDDA with probability 100%
Доп. информация:
 
Album Info & AMG Review
Texts: Beth Lisick (1), Scott Rosenberg (2), HD Moe (3), Angela Coon (4), Rita (5)
Composed and conducted by John Shiurba
Recorded by Myles Boisen at Guerrilla Recording on February 10, 2002
Mixed & mastered by Myles Boisen & John Shiurba at Headless Buddha Mastering Lab
Artwork by David Cooper
This is a stunningly rich and powerful release, the kind you will immediately hate or fall in love with. John Shiurba has assembled an impressive West Coast octet, featuring vocalists Lara Bruckmann and Morgan Guberman, drummer Gino Robair, and bassist Matthew Sperry (among others), and conducts them through five of his tortuous compositions. Hearing the violent, sharp outbursts, jagged edges, complex contrapuntal lines, and eerie use of operatic vocals in the opener, "Adobe," the listener is immediately reminded of Frank Zappa's orchestral writing on 200 Motels. Further listening reveals how true the resemblance is, but also how insufficient it turns out to be. Shiurba's writing pushes this side of Zappa's oeuvre into deeper territory, exploring instrumental textures ("Rita"), phonemic nonsense ("Short Reels"), and lyricism. Bruckmann and Guberman deliver a riveting performance throughout the set, their technical virtuosity completed by genuine passion for the material and, in Guberman's case, an in-your-face approach strongly reminiscent of Phil Minton's interpretations. Each piece is a collaboration with a different lyricist, adding a certain variety to Shiurba's otherwise homogenous approach. Some will interpret the previous sentence as a reproach, but the similarity of these five pieces actually makes for a constantly thrilling listen. Several other composers have attempted this kind of music, but very few have been able to match Zappa's flair and make it sound like more than an academic exercise. With Triplicate, John Shiurba certainly did.
 
Состав
Lara Bruckmann: voice
Morgan Guberman: voice
Matt Ingals: Bb clarinet
Dan Plonsey: alto sax, Eb clarinet, oboe, violin
Tom Djll: trumpet
Tom Yoder: trombone
Matthew Sperry: contrabass
Gino Robair: percussion, marimba, analog synth
По всем вопросам пишите личное сообщение пользователю M0p94ok.
20:46
135
Нет комментариев. Ваш будет первым!