Вы используете незарегистрированную версию компонента "Вкладки"!

Поиск

(Avant-Garde Jazz, Modern Composition) [CD] Scott Fields, Francois Houle, Jason Roebke - Hornets Collage - 1999, FLAC (tracks+.cue), lossless

(Avant-Garde Jazz, Modern Composition) [CD] Scott Fields, Francois Houle, Jason Roebke - Hornets Collage - 1999, FLAC (tracks+.cue), lossless
Треклист:
Scott Fields, Francois Houle, Jason Roebke / Hornets Collage
Жанр: Avant-Garde Jazz, Modern Composition
Носитель: CD
Страна-производитель диска: US
Год издания: 1999
Издатель (лейбл): Nuscope Recordings
Номер по каталогу: CD 1005
Страна: US
Аудиокодек: FLAC (*.flac)
Тип рипа: tracks+.cue
Битрейт аудио: lossless
Продолжительность: 70:14
Источник (релизер): свой фирменный диск
Наличие сканов в содержимом раздачи:
Треклист:
1. 2nd Degree Of Light 6:24
2. Fur 1:13
3. In A Perfect World 5:13
4. For Her 1:08
5. When She Speaks She Speaks 3:09
6. You Call That Constructive Criticism 13:45
7. Furious 1:11
8. Alliance 2:15
9. Cody And You 4:25
10. Former 2:09
11. Places 4:13
12. Are You Now Or Have You Ever Been 7:13
13. In Life 4:10
14. Concerto For Guitar 3:37
15. Put That Hose Away 3:53
16. Sheridan Snow 2:56
17. Furrier 1:37
18. Last Love Song 1:38
 
Лог создания рипа
Exact Audio Copy V1.0 beta 3 from 29. August 2011
EAC extraction logfile from 7. June 2014, 13:22
Scott Fields, Francois Houle, Jason Roebke / Hornets Collage
Used drive : PIONEER DVD-RW DVR-115D Adapter: 0 ID: 0
Read mode : Secure
Utilize accurate stream : Yes
Defeat audio cache : Yes
Make use of C2 pointers : No
Read offset correction : 48
Overread into Lead-In and Lead-Out : No
Fill up missing offset samples with silence : Yes
Delete leading and trailing silent blocks : No
Null samples used in CRC calculations : Yes
Used interface : Installed external ASPI interface
Gap handling : Appended to previous track
Used output format : User Defined Encoder
Selected bitrate : 896 kBit/s
Quality : High
Add ID3 tag : No
Command line compressor : C:\Program Files\Exact Audio Copy\FLAC\FLAC.EXE
Additional command line options : -6 -V -T "ARTIST=%artist%" -T "TITLE=%title%" -T "ALBUM=%albumtitle%" -T "DATE=%year%" -T "TRACKNUMBER=%tracknr%" -T "GENRE=%genre%" -T "COMMENT=%comment%" -T "BAND=%albuminterpret%" -T "COMPOSER=%composer%" %haslyrics%--tag-from-file=LYRICS="%lyricsfile%"%haslyrics% -T "DISCNUMBER=%cdnumber%" -T "TOTALDISCS=%totalcds%" -T "TOTALTRACKS=%numtracks%" %hascover%--picture="%coverfile%"%hascover% %source% -o %dest%
TOC of the extracted CD
Track | Start | Length | Start sector | End sector
---------------------------------------------------------
1 | 0:00.00 | 6:21.07 | 0 | 28581
2 | 6:21.07 | 1:13.03 | 28582 | 34059
3 | 7:34.10 | 5:13.49 | 34060 | 57583
4 | 12:47.59 | 1:08.30 | 57584 | 62713
5 | 13:56.14 | 3:09.72 | 62714 | 76960
6 | 17:06.11 | 13:45.73 | 76961 | 138908
7 | 30:52.09 | 1:11.62 | 138909 | 144295
8 | 32:03.71 | 2:15.10 | 144296 | 154430
9 | 34:19.06 | 4:25.74 | 154431 | 174379
10 | 38:45.05 | 2:09.28 | 174380 | 184082
11 | 40:54.33 | 4:13.02 | 184083 | 203059
12 | 45:07.35 | 7:13.23 | 203060 | 235557
13 | 52:20.58 | 4:10.18 | 235558 | 254325
14 | 56:31.01 | 3:37.44 | 254326 | 270644
15 | 60:08.45 | 3:53.21 | 270645 | 288140
16 | 64:01.66 | 2:56.20 | 288141 | 301360
17 | 66:58.11 | 1:37.38 | 301361 | 308673
18 | 68:35.49 | 1:38.52 | 308674 | 316075
Track 1
Filename D:\zzz\01 - 2nd Degree Of Light.wav
Pre-gap length 0:00:02.00
Peak level 83.0 %
Extraction speed 4.7 X
Track quality 99.9 %
Test CRC 41337DBF
Copy CRC 41337DBF
Track not present in AccurateRip database
Copy OK
Track 2
Filename D:\zzz\02 - Fur.wav
Pre-gap length 0:00:02.45
Peak level 87.0 %
Extraction speed 3.1 X
Track quality 99.8 %
Test CRC F208F5BB
Copy CRC F208F5BB
Track not present in AccurateRip database
Copy OK
Track 3
Filename D:\zzz\03 - In A Perfect World.wav
Pre-gap length 0:00:03.45
Peak level 90.6 %
Extraction speed 5.7 X
Track quality 100.0 %
Test CRC 7B3F4C70
Copy CRC 7B3F4C70
Track not present in AccurateRip database
Copy OK
Track 4
Filename D:\zzz\04 - For Her.wav
Pre-gap length 0:00:01.45
Peak level 73.0 %
Extraction speed 3.3 X
Track quality 99.8 %
Test CRC 4CA7CDA2
Copy CRC 4CA7CDA2
Track not present in AccurateRip database
Copy OK
Track 5
Filename D:\zzz\05 - When She Speaks She Speaks.wav
Pre-gap length 0:00:01.45
Peak level 69.1 %
Extraction speed 5.8 X
Track quality 100.0 %
Test CRC 508B84E1
Copy CRC 508B84E1
Track not present in AccurateRip database
Copy OK
Track 6
Filename D:\zzz\06 - You Call That Constructive Criticism.wav
Pre-gap length 0:00:01.45
Peak level 96.5 %
Extraction speed 6.2 X
Track quality 99.9 %
Test CRC 2F85876A
Copy CRC 2F85876A
Track not present in AccurateRip database
Copy OK
Track 7
Filename D:\zzz\07 - Furious.wav
Pre-gap length 0:00:02.45
Peak level 57.6 %
Extraction speed 5.4 X
Track quality 100.0 %
Test CRC 8AF3380D
Copy CRC 8AF3380D
Track not present in AccurateRip database
Copy OK
Track 8
Filename D:\zzz\08 - Alliance.wav
Pre-gap length 0:00:03.45
Peak level 46.0 %
Extraction speed 5.4 X
Track quality 99.9 %
Test CRC 9345D305
Copy CRC 9345D305
Track not present in AccurateRip database
Copy OK
Track 9
Filename D:\zzz\09 - Cody And You.wav
Pre-gap length 0:00:01.45
Peak level 35.9 %
Extraction speed 7.5 X
Track quality 100.0 %
Test CRC 551DA427
Copy CRC 551DA427
Track not present in AccurateRip database
Copy OK
Track 10
Filename D:\zzz\10 - Former.wav
Pre-gap length 0:00:01.45
Peak level 74.3 %
Extraction speed 6.8 X
Track quality 100.0 %
Test CRC 1EA0D744
Copy CRC 1EA0D744
Track not present in AccurateRip database
Copy OK
Track 11
Filename D:\zzz\11 - Places.wav
Pre-gap length 0:00:01.45
Peak level 94.9 %
Extraction speed 7.8 X
Track quality 100.0 %
Test CRC C12623F6
Copy CRC C12623F6
Track not present in AccurateRip database
Copy OK
Track 12
Filename D:\zzz\12 - Are You Now Or Have You Ever Been.wav
Pre-gap length 0:00:04.45
Peak level 93.7 %
Extraction speed 8.6 X
Track quality 100.0 %
Test CRC 696F4923
Copy CRC 696F4923
Track not present in AccurateRip database
Copy OK
Track 13
Filename D:\zzz\13 - In Life.wav
Pre-gap length 0:00:02.45
Peak level 45.1 %
Extraction speed 8.4 X
Track quality 100.0 %
Test CRC A37BE01B
Copy CRC A37BE01B
Track not present in AccurateRip database
Copy OK
Track 14
Filename D:\zzz\14 - Concerto For Guitar.wav
Pre-gap length 0:00:02.45
Peak level 81.6 %
Extraction speed 8.5 X
Track quality 100.0 %
Test CRC F87447D0
Copy CRC F87447D0
Track not present in AccurateRip database
Copy OK
Track 15
Filename D:\zzz\15 - Put That Hose Away.wav
Pre-gap length 0:00:02.01
Peak level 76.2 %
Extraction speed 8.7 X
Track quality 100.0 %
Test CRC BF4B3B91
Copy CRC BF4B3B91
Track not present in AccurateRip database
Copy OK
Track 16
Filename D:\zzz\16 - Sheridan Snow.wav
Pre-gap length 0:00:02.45
Peak level 42.3 %
Extraction speed 7.3 X
Track quality 99.9 %
Test CRC 482F1F08
Copy CRC 482F1F08
Track not present in AccurateRip database
Copy OK
Track 17
Filename D:\zzz\17 - Furrier.wav
Pre-gap length 0:00:01.45
Peak level 41.7 %
Extraction speed 7.5 X
Track quality 100.0 %
Test CRC A3F30D56
Copy CRC A3F30D56
Track not present in AccurateRip database
Copy OK
Track 18
Filename D:\zzz\18 - Last Love Song.wav
Pre-gap length 0:00:03.45
Peak level 51.1 %
Extraction speed 2.3 X
Track quality 100.0 %
Test CRC C658AF0D
Copy CRC C658AF0D
Track not present in AccurateRip database
Copy OK
None of the tracks are present in the AccurateRip database
No errors occurred
End of status report
==== Log checksum EAA967912B3D00A843611A6FE552E50087A75155C9B9782D37FF1CB52F773E93 ====
 
Содержание индексной карты (.CUE)
REM GENRE "Avant-Garde Jazz"
REM DATE 1999
REM DISCID FB107612
REM COMMENT "ExactAudioCopy v1.0b3"
PERFORMER "Scott Fields, Francois Houle, Jason Roebke"
TITLE "Hornets Collage"
FILE "01 - 2nd Degree Of Light.wav" WAVE
TRACK 01 AUDIO
TITLE "2nd Degree Of Light"
PERFORMER "Scott Fields, Francois Houle, Jason Roebke"
FLAGS DCP
INDEX 01 00:00:00
TRACK 02 AUDIO
TITLE "Fur"
PERFORMER "Scott Fields, Francois Houle, Jason Roebke"
FLAGS DCP
INDEX 00 06:18:37
FILE "02 - Fur.wav" WAVE
INDEX 01 00:00:00
TRACK 03 AUDIO
TITLE "In A Perfect World"
PERFORMER "Scott Fields, Francois Houle, Jason Roebke"
FLAGS DCP
INDEX 00 01:09:33
FILE "03 - In A Perfect World.wav" WAVE
INDEX 01 00:00:00
TRACK 04 AUDIO
TITLE "For Her"
PERFORMER "Scott Fields, Francois Houle, Jason Roebke"
FLAGS DCP
INDEX 00 05:12:04
FILE "04 - For Her.wav" WAVE
INDEX 01 00:00:00
TRACK 05 AUDIO
TITLE "When She Speaks She Speaks"
PERFORMER "Scott Fields, Francois Houle, Jason Roebke"
FLAGS DCP
INDEX 00 01:06:60
FILE "05 - When She Speaks She Speaks.wav" WAVE
INDEX 01 00:00:00
TRACK 06 AUDIO
TITLE "You Call That Constructive Criticism"
PERFORMER "Scott Fields, Francois Houle, Jason Roebke"
FLAGS DCP
INDEX 00 03:08:27
FILE "06 - You Call That Constructive Criticism.wav" WAVE
INDEX 01 00:00:00
TRACK 07 AUDIO
TITLE "Furious"
PERFORMER "Scott Fields, Francois Houle, Jason Roebke"
FLAGS DCP
INDEX 00 13:43:28
FILE "07 - Furious.wav" WAVE
INDEX 01 00:00:00
TRACK 08 AUDIO
TITLE "Alliance"
PERFORMER "Scott Fields, Francois Houle, Jason Roebke"
FLAGS DCP
INDEX 00 01:08:17
FILE "08 - Alliance.wav" WAVE
INDEX 01 00:00:00
TRACK 09 AUDIO
TITLE "Cody And You"
PERFORMER "Scott Fields, Francois Houle, Jason Roebke"
FLAGS DCP
INDEX 00 02:13:40
FILE "09 - Cody And You.wav" WAVE
INDEX 01 00:00:00
TRACK 10 AUDIO
TITLE "Former"
PERFORMER "Scott Fields, Francois Houle, Jason Roebke"
FLAGS DCP
INDEX 00 04:24:29
FILE "10 - Former.wav" WAVE
INDEX 01 00:00:00
TRACK 11 AUDIO
TITLE "Places"
PERFORMER "Scott Fields, Francois Houle, Jason Roebke"
FLAGS DCP
INDEX 00 02:07:58
FILE "11 - Places.wav" WAVE
INDEX 01 00:00:00
TRACK 12 AUDIO
TITLE "Are You Now Or Have You Ever Been"
PERFORMER "Scott Fields, Francois Houle, Jason Roebke"
FLAGS DCP
INDEX 00 04:08:32
FILE "12 - Are You Now Or Have You Ever Been.wav" WAVE
INDEX 01 00:00:00
TRACK 13 AUDIO
TITLE "In Life"
PERFORMER "Scott Fields, Francois Houle, Jason Roebke"
FLAGS DCP
INDEX 00 07:10:53
FILE "13 - In Life.wav" WAVE
INDEX 01 00:00:00
TRACK 14 AUDIO
TITLE "Concerto For Guitar"
PERFORMER "Scott Fields, Francois Houle, Jason Roebke"
FLAGS DCP
INDEX 00 04:07:48
FILE "14 - Concerto For Guitar.wav" WAVE
INDEX 01 00:00:00
TRACK 15 AUDIO
TITLE "Put That Hose Away"
PERFORMER "Scott Fields, Francois Houle, Jason Roebke"
FLAGS DCP
INDEX 00 03:35:43
FILE "15 - Put That Hose Away.wav" WAVE
INDEX 01 00:00:00
TRACK 16 AUDIO
TITLE "Sheridan Snow"
PERFORMER "Scott Fields, Francois Houle, Jason Roebke"
FLAGS DCP
INDEX 00 03:50:51
FILE "16 - Sheridan Snow.wav" WAVE
INDEX 01 00:00:00
TRACK 17 AUDIO
TITLE "Furrier"
PERFORMER "Scott Fields, Francois Houle, Jason Roebke"
FLAGS DCP
INDEX 00 02:54:50
FILE "17 - Furrier.wav" WAVE
INDEX 01 00:00:00
TRACK 18 AUDIO
TITLE "Last Love Song"
PERFORMER "Scott Fields, Francois Houle, Jason Roebke"
FLAGS DCP
INDEX 00 01:33:68
FILE "18 - Last Love Song.wav" WAVE
INDEX 01 00:00:00
 
Лог проверки качества
d:\>d:\aucdtect -d/-m0 d:\zzz\*.wav
auCDtect: CD records authenticity detector, version 0.8.2
Copyright (c) 2004 Oleg Berngardt. All rights reserved.
Copyright (c) 2004 Alexander Djourik. All rights reserved.
------------------------------------------------------------
Processing file: [01. 2nd Degree Of Light.wav]
------------------------------------------------------------
This track looks like CDDA with probability 100%
------------------------------------------------------------
Processing file: [02. Fur.wav]
------------------------------------------------------------
This track looks like CDDA with probability 99%
------------------------------------------------------------
Processing file: [03. In A Perfect World.wav]
------------------------------------------------------------
This track looks like CDDA with probability 87%
------------------------------------------------------------
Processing file: [04. For Her.wav]
------------------------------------------------------------
This track looks like CDDA with probability 100%
------------------------------------------------------------
Processing file: [05. When She Speaks She Speaks.wav]
------------------------------------------------------------
This track looks like CDDA with probability 85%
------------------------------------------------------------
Processing file: [06. You Call That Constructive Criticism.wav]
------------------------------------------------------------
This track looks like CDDA with probability 100%
------------------------------------------------------------
Processing file: [07. Furious.wav]
------------------------------------------------------------
This track looks like CDDA with probability 100%
------------------------------------------------------------
Processing file: [08. Alliance.wav]
------------------------------------------------------------
This track looks like CDDA with probability 100%
------------------------------------------------------------
Processing file: [09. Cody And You.wav]
------------------------------------------------------------
This track looks like CDDA with probability 100%
------------------------------------------------------------
Processing file: [10. Former.wav]
------------------------------------------------------------
This track looks like CDDA with probability 100%
------------------------------------------------------------
Processing file: [11. Places.wav]
------------------------------------------------------------
This track looks like CDDA with probability 99%
------------------------------------------------------------
Processing file: [12. Are You Now Or Have You Ever Been.wav]
------------------------------------------------------------
This track looks like CDDA with probability 100%
------------------------------------------------------------
Processing file: [13. In Life.wav]
------------------------------------------------------------
This track looks like CDDA with probability 100%
------------------------------------------------------------
Processing file: [14. Concerto For Guitar.wav]
------------------------------------------------------------
This track looks like CDDA with probability 100%
------------------------------------------------------------
Processing file: [15. Put That Hose Away.wav]
------------------------------------------------------------
This track looks like CDDA with probability 100%
------------------------------------------------------------
Processing file: [16. Sheridan Snow.wav]
------------------------------------------------------------
This track looks like CDDA with probability 100%
------------------------------------------------------------
Processing file: [17. Furrier.wav]
------------------------------------------------------------
This track looks like CDDA with probability 54%
------------------------------------------------------------
Processing file: [18. Last Love Song.wav]
------------------------------------------------------------
This track looks like CDDA with probability 100%
------------------------------------------------------------
Final Conclusion:
------------------------------------------------------------
These tracks looks like CDDA with probability 100%
Доп. информация:
 
Album Info & AMG Review
(Houle) - 1,8,9,16
(collective) - 2,4,7,10,17
(Fields) - 3,6,12,15
(Roebke) - 5,11,13,14,18
Recorded in Madison, Wisconsin on February 27, 1999 at Smart Studios
Mastered in Evansville, Wisconsin on June 6, 1999 at Ultimate Audio
Recording & mixing engineer: Mike Zirkel
Mastering engineer: Tom Blain
Producer: Scott Fields
Executive producer: Russell Summers
Graphic designer: Russell Summers
Cover photographer: Amy Wencel
Inside booklet photographer: Ronald M. Hinton
Outdoor installation art: "Six Of One", Patrick Dougherty
Liner notes: Scott Fields, Jon Morgan
Madison, Wisconsin acoustic guitarist Scott Fields, Vancouver, Canada clarinetist François Houle, and Ann Arbor, Michigan bassist Jason Roebke get together for 18 selections that have little to do with the title. Where you would expect polyphonic buzzing, you instead hear patient, respectful free improvisation, generally without time signatures, reflecting a deep emotional and spiritual center. Fields has quite a clean tone, reminiscent of Ralph Towner sans harmonics; Houle is very tonal and melodic; while Roebke ably fills in cracks, sets occasional rhythmic preludes, and gives the other two a sounding board to bounce ideas off of. Five of the pieces are spontaneous compositions: "Fur" is a skittish shortie; "Furrier" is calm and loose' "Furious" is a snippet more steaming than livid; "Former" is reflective, and "For Her" is searching. Houle's compositions exude sheer beauty. "Second Degree of Light" features Roebke's two-note bass ostinato buoying a meditative guitar and clarinet; "Alliance" has a fluttery clarinet, with bass and guitar swirling about, and "Sheridan Snow" shows Houle in a pensive mood. Roebke also proves an intriguing composer. His "Last Long Love" has a beauty that rivals "Second Degree of Light"; "Places" displays the most melodic invention on this disc, but moves into pure improv; "In Life" works in an intro bass that sets up Houle's introspective clarinet; while "When She Speaks, She Speaks" is more hyperactive. Fields does not stick to tonality. His piece "You Call That Constructive Criticism?" is a near-14-minute excursion through many changes, variations, and phases of improvisation, with raked guitar and overblown clarinet sounds. "Are You Now or Have You Ever Been..." has sawing bass and clarinet-pad pops leading to a choppy march beat. "Put That Hose Away" again returns to melodic interplay, with clarinet on top. The spontaneity of the trio has an edge, yet is eminently listenable. There's some real-world psychodrama and even-keeled peacefulness taking place throughout this fine recording, which sports a vision and clarity lacking in the some of the noisier, less musical avant-garde. Recommended.
 
Состав
Scott Fields: acoustic guitars
Francois Houle: clarinets
Jason Lee Roebke: double-bass
По всем вопросам пишите личное сообщение пользователю M0p94ok.
03:15
205
Нет комментариев. Ваш будет первым!