Вы используете незарегистрированную версию компонента "Вкладки"!

Поиск

(Avant-Garde Jazz, Modern Composition) [CD] Rob Blakeslee Quartet (w/ Michael Vlatkovich, Clyde Reed, Dave Storrs) - Last Minute Gifts - 2000, FLAC (tracks+.cue), lossless

(Avant-Garde Jazz, Modern Composition) [CD] Rob Blakeslee Quartet (w/ Michael Vlatkovich, Clyde Reed, Dave Storrs) - Last Minute Gifts - 2000, FLAC (tracks+.cue), lossless
Треклист:
Rob Blakeslee Quartet / Last Minute Gifts
Жанр: Avant-Garde Jazz, Modern Composition
Носитель: CD
Страна-производитель диска: US
Год издания: 2000
Издатель (лейбл): Louie Records
Номер по каталогу: LOUIE-019
Страна: US
Аудиокодек: FLAC (*.flac)
Тип рипа: tracks+.cue
Битрейт аудио: lossless
Продолжительность: 60:43
Источник (релизер): свой фирменный диск
Наличие сканов в содержимом раздачи:
Треклист:
1. Moss People 10:25
2. Megan's Tugboat 8:13
3. Gilmore's Boys 8:45
4. It's Later Than You Think 10:31
5. Huff Creek Road (Dedicated To James Byrd Jr.) 11:40
6. Advice From A Pufferfish 10:37
 
Лог создания рипа
Exact Audio Copy V1.0 beta 3 from 29. August 2011
EAC extraction logfile from 7. June 2014, 23:38
Rob Blakeslee Quartet / Last Minute Gifts
Used drive : PIONEER DVD-RW DVR-115D Adapter: 0 ID: 0
Read mode : Secure
Utilize accurate stream : Yes
Defeat audio cache : Yes
Make use of C2 pointers : No
Read offset correction : 48
Overread into Lead-In and Lead-Out : No
Fill up missing offset samples with silence : Yes
Delete leading and trailing silent blocks : No
Null samples used in CRC calculations : Yes
Used interface : Installed external ASPI interface
Gap handling : Appended to previous track
Used output format : User Defined Encoder
Selected bitrate : 896 kBit/s
Quality : High
Add ID3 tag : No
Command line compressor : C:\Program Files\Exact Audio Copy\FLAC\FLAC.EXE
Additional command line options : -6 -V -T "ARTIST=%artist%" -T "TITLE=%title%" -T "ALBUM=%albumtitle%" -T "DATE=%year%" -T "TRACKNUMBER=%tracknr%" -T "GENRE=%genre%" -T "COMMENT=%comment%" -T "BAND=%albuminterpret%" -T "COMPOSER=%composer%" %haslyrics%--tag-from-file=LYRICS="%lyricsfile%"%haslyrics% -T "DISCNUMBER=%cdnumber%" -T "TOTALDISCS=%totalcds%" -T "TOTALTRACKS=%numtracks%" %hascover%--picture="%coverfile%"%hascover% %source% -o %dest%
TOC of the extracted CD
Track | Start | Length | Start sector | End sector
---------------------------------------------------------
1 | 0:00.00 | 10:31.00 | 0 | 47324
2 | 10:31.00 | 8:19.00 | 47325 | 84749
3 | 18:50.00 | 8:51.00 | 84750 | 124574
4 | 27:41.00 | 10:37.00 | 124575 | 172349
5 | 38:18.00 | 11:47.00 | 172350 | 225374
6 | 50:05.00 | 10:38.00 | 225375 | 273224
Track 1
Filename D:\zzz\01 - Moss People.wav
Pre-gap length 0:00:02.00
Peak level 100.0 %
Extraction speed 5.1 X
Track quality 100.0 %
Test CRC F1FFCC20
Copy CRC F1FFCC20
Accurately ripped (confidence 1) [A1A8D02A] (AR v1)
Copy OK
Track 2
Filename D:\zzz\02 - Megan's Tugboat.wav
Pre-gap length 0:00:05.00
Peak level 100.0 %
Extraction speed 5.6 X
Track quality 99.9 %
Test CRC 61491982
Copy CRC 61491982
Accurately ripped (confidence 1) [9958E29C] (AR v1)
Copy OK
Track 3
Filename D:\zzz\03 - Gilmore's Boys.wav
Pre-gap length 0:00:05.00
Peak level 100.0 %
Extraction speed 6.8 X
Track quality 100.0 %
Test CRC 84470FF8
Copy CRC 84470FF8
Accurately ripped (confidence 1) [5EDB2556] (AR v1)
Copy OK
Track 4
Filename D:\zzz\04 - It's Later Than You Think.wav
Pre-gap length 0:00:05.00
Peak level 100.0 %
Extraction speed 7.5 X
Track quality 100.0 %
Test CRC C8C06C73
Copy CRC C8C06C73
Accurately ripped (confidence 1) [42768AEB] (AR v1)
Copy OK
Track 5
Filename D:\zzz\05 - Huff Creek Road.wav
Pre-gap length 0:00:05.00
Peak level 100.0 %
Extraction speed 8.2 X
Track quality 100.0 %
Test CRC FEFAC685
Copy CRC FEFAC685
Accurately ripped (confidence 1) [B5121145] (AR v1)
Copy OK
Track 6
Filename D:\zzz\06 - Advice From A Pufferfish.wav
Pre-gap length 0:00:05.00
Peak level 100.0 %
Extraction speed 8.8 X
Track quality 100.0 %
Test CRC D5B996E2
Copy CRC D5B996E2
Accurately ripped (confidence 1) [615EF0C8] (AR v1)
Copy OK
All tracks accurately ripped
No errors occurred
End of status report
==== Log checksum FB9C857CE868C8A6A5CDBD79043C2216F3118E476EB586FF35EB9AD7A6915C9A ====
 
Содержание индексной карты (.CUE)
REM GENRE "Avant-Garde Jazz"
REM DATE 2000
REM DISCID 340E3B06
REM COMMENT "ExactAudioCopy v1.0b3"
PERFORMER "Rob Blakeslee Quartet"
TITLE "Last Minute Gifts"
FILE "01 - Moss People.wav" WAVE
TRACK 01 AUDIO
TITLE "Moss People"
PERFORMER "Rob Blakeslee Quartet"
INDEX 01 00:00:00
TRACK 02 AUDIO
TITLE "Megan's Tugboat"
PERFORMER "Rob Blakeslee Quartet"
INDEX 00 10:26:00
FILE "02 - Megan's Tugboat.wav" WAVE
INDEX 01 00:00:00
TRACK 03 AUDIO
TITLE "Gilmore's Boys"
PERFORMER "Rob Blakeslee Quartet"
INDEX 00 08:14:00
FILE "03 - Gilmore's Boys.wav" WAVE
INDEX 01 00:00:00
TRACK 04 AUDIO
TITLE "It's Later Than You Think"
PERFORMER "Rob Blakeslee Quartet"
INDEX 00 08:46:00
FILE "04 - It's Later Than You Think.wav" WAVE
INDEX 01 00:00:00
TRACK 05 AUDIO
TITLE "Huff Creek Road"
PERFORMER "Rob Blakeslee Quartet"
INDEX 00 10:32:00
FILE "05 - Huff Creek Road.wav" WAVE
INDEX 01 00:00:00
TRACK 06 AUDIO
TITLE "Advice From A Pufferfish"
PERFORMER "Rob Blakeslee Quartet"
INDEX 00 11:42:00
FILE "06 - Advice From A Pufferfish.wav" WAVE
INDEX 01 00:00:00
 
Лог проверки качества
d:\>d:\aucdtect -d/-m0 d:\zzz\*.wav
auCDtect: CD records authenticity detector, version 0.8.2
Copyright (c) 2004 Oleg Berngardt. All rights reserved.
Copyright (c) 2004 Alexander Djourik. All rights reserved.
------------------------------------------------------------
Processing file: [01. Moss People.wav]
------------------------------------------------------------
This track looks like CDDA with probability 100%
------------------------------------------------------------
Processing file: [02. Megan's Tugboat.wav]
------------------------------------------------------------
This track looks like CDDA with probability 100%
------------------------------------------------------------
Processing file: [03. Gilmore's Boys.wav]
------------------------------------------------------------
This track looks like CDDA with probability 100%
------------------------------------------------------------
Processing file: [04. It's Later Than You Think.wav]
------------------------------------------------------------
This track looks like CDDA with probability 100%
------------------------------------------------------------
Processing file: [05. Huff Creek Road.wav]
------------------------------------------------------------
This track looks like CDDA with probability 100%
------------------------------------------------------------
Processing file: [06. Advice From A Pufferfish.wav]
------------------------------------------------------------
This track looks like CDDA with probability 100%
------------------------------------------------------------
Final Conclusion:
------------------------------------------------------------
These tracks looks like CDDA with probability 100%
Доп. информация:
 
Album Info & AMG Review
All compositions by Rob Blakeslee
Recorded at Califas Studio August 23, 2000
Produced by Dave Storrs and Rob Blakeslee
Engineered by Dave Storrs
Mastering by Dave Trenkel
Photo credit Cathy Blakeslee (Marcinkiewicz Co.)
Layout by Ben Brown
Rob Blakeslee plays Marcinkiewicz mouthpieces, trumpets, and flugelhorns
Liner notes: Frank Rubolino, Cadence Magazine, One Final Note (www.onefinalnote.com)
I would paint wild flowers
that never grow
in this man's land
and heap them on you
clumsily.
they should be
blurry purple or chartreuse
and scatter dots of light
as randomly
as windows in the dusk
on unsafe roads
(Poem by Dorothea Grossman)
Face it: The United States is a country that thrives on instant gratification. Americans lead busy, hectic lives; as a result, many don't have the patience to sit down and take the time to absorb abstract music that won't go out of its way to be accessible. However, that doesn't mean that an album as challenging and left-of-center as Last Minute Gifts can't have an audience in the U.S. --it simply means that left-of-center jazzmen like Rob Blakeslee will appeal to a small and select audience (one that will probably include a lot of intellectuals in Sweden). For listeners who do have some patience -- American, European, or otherwise -- Last Minute Gifts has a lot going for it. Blakeslee is an expressive trumpeter/flügelhornist, although he isn't someone who offers listeners the quick fix. Original pieces like "Megan's Tugboat," "Advice From a Pufferfish," and "Moss People" are cerebral, angular, and unapologetically abstract; this is an avant-garde/post-bop CD that must always be accepted on its own terms, and Blakeslee makes no compromises. But those who are patient enough to go along for the ride will find a lot to admire about this release -- not only Blakeslee's attractive tone and his expressive soloing, but also the solid accompaniment of trombonist Michael Vlatkovich (who sometimes reminds you of Ray Anderson), bassist Clyde Reed, and drummer/percussionist Dave Storrs. However, listeners may need to play Last Minute Gifts several times before the CD really wins them over; the first listen may not do the trick. And that brings us back to the subject of instant gratification, which is something that Last Minute Gifts refuses to offer. It does offer delayed gratification, and when that gratification comes, the listener is most certainly rewarded.
 
Состав
Rob Blakeslee: trumpets, flugelhorn, percussion
Michael Vlatkovich: trombone
Clyde Reed: bass
Dave Storrs: drums, percussion
По всем вопросам пишите личное сообщение пользователю M0p94ok.
03:16
152
Нет комментариев. Ваш будет первым!