Вы используете незарегистрированную версию компонента "Вкладки"!

Поиск

(Avant-Garde Jazz, Modern Composition) [CD] Muhal Richard Abrams & Roscoe Mitchell - Spectrum - 2009, FLAC (tracks+.cue), lossless

(Avant-Garde Jazz, Modern Composition) [CD] Muhal Richard Abrams & Roscoe Mitchell - Spectrum - 2009, FLAC (tracks+.cue), lossless
Треклист:
Muhal Richard Abrams & Roscoe Mitchell / Spectrum
Жанр: Avant-Garde Jazz, Modern Composition
Носитель: CD
Страна-производитель диска: US
Год издания: 2009
Издатель (лейбл): Mutable Music
Номер по каталогу: 17536-2
Страна: US
Аудиокодек: FLAC (*.flac)
Тип рипа: tracks+.cue
Битрейт аудио: lossless
Продолжительность: 46:02
Источник (релизер): свой фирменный диск
Наличие сканов в содержимом раздачи:
Треклист:
1. Romu 11:51
Non-Cognitive Aspects Of The City
2. Non-Cognitive I 6:33
3. Non-Cognitive II 2:03
4. Non-Cognitive III 8:21
5. Mergertone 17:15
 
Лог создания рипа
Exact Audio Copy V1.0 beta 3 from 29. August 2011
EAC extraction logfile from 20. April 2014, 21:29
Muhal Richard Abrams & Roscoe Mitchell / Spectrum
Used drive : PIONEER DVD-RW DVR-115D Adapter: 0 ID: 0
Read mode : Secure
Utilize accurate stream : Yes
Defeat audio cache : Yes
Make use of C2 pointers : No
Read offset correction : 48
Overread into Lead-In and Lead-Out : No
Fill up missing offset samples with silence : Yes
Delete leading and trailing silent blocks : No
Null samples used in CRC calculations : Yes
Used interface : Installed external ASPI interface
Gap handling : Appended to previous track
Used output format : User Defined Encoder
Selected bitrate : 896 kBit/s
Quality : High
Add ID3 tag : No
Command line compressor : C:\Program Files\Exact Audio Copy\FLAC\FLAC.EXE
Additional command line options : -6 -V -T "ARTIST=%artist%" -T "TITLE=%title%" -T "ALBUM=%albumtitle%" -T "DATE=%year%" -T "TRACKNUMBER=%tracknr%" -T "GENRE=%genre%" -T "COMMENT=%comment%" -T "BAND=%albuminterpret%" -T "COMPOSER=%composer%" %haslyrics%--tag-from-file=LYRICS="%lyricsfile%"%haslyrics% -T "DISCNUMBER=%cdnumber%" -T "TOTALDISCS=%totalcds%" -T "TOTALTRACKS=%numtracks%" %hascover%--picture="%coverfile%"%hascover% %source% -o %dest%
TOC of the extracted CD
Track | Start | Length | Start sector | End sector
---------------------------------------------------------
1 | 0:00.00 | 11:51.00 | 0 | 53324
2 | 11:51.00 | 6:32.69 | 53325 | 82793
3 | 18:23.69 | 2:03.33 | 82794 | 92051
4 | 20:27.27 | 8:20.44 | 92052 | 129595
5 | 28:47.71 | 17:14.73 | 129596 | 207218
Track 1
Filename D:\zzz\01 - Romu.wav
Pre-gap length 0:00:02.00
Peak level 87.1 %
Extraction speed 5.1 X
Track quality 100.0 %
Test CRC B1EEC1E9
Copy CRC B1EEC1E9
Track not present in AccurateRip database
Copy OK
Track 2
Filename D:\zzz\02 - Non-Cognitive Aspects Of The City I.wav
Peak level 97.7 %
Extraction speed 5.9 X
Track quality 100.0 %
Test CRC C9746A4F
Copy CRC C9746A4F
Track not present in AccurateRip database
Copy OK
Track 3
Filename D:\zzz\03 - Non-Cognitive Aspects Of The City II.wav
Peak level 97.7 %
Extraction speed 5.2 X
Track quality 100.0 %
Test CRC 53843CA1
Copy CRC 53843CA1
Track not present in AccurateRip database
Copy OK
Track 4
Filename D:\zzz\04 - Non-Cognitive Aspects Of The City III.wav
Peak level 97.7 %
Extraction speed 6.7 X
Track quality 100.0 %
Test CRC D11CAE17
Copy CRC D11CAE17
Track not present in AccurateRip database
Copy OK
Track 5
Filename D:\zzz\05 - Mergertone.wav
Peak level 97.7 %
Extraction speed 7.9 X
Track quality 100.0 %
Test CRC 59E51CDC
Copy CRC 59E51CDC
Track not present in AccurateRip database
Copy OK
None of the tracks are present in the AccurateRip database
No errors occurred
End of status report
==== Log checksum 02EF8C6182B469C11C00685C6253A495147D9B02DC304E58FF60534F44CB4AEA ====
 
Содержание индексной карты (.CUE)
REM GENRE "Modern Classical"
REM DATE 2009
REM DISCID 350ACA05
REM COMMENT "ExactAudioCopy v1.0b3"
PERFORMER "Muhal Richard Abrams & Roscoe Mitchell"
TITLE "Spectrum"
FILE "01 - Romu.wav" WAVE
TRACK 01 AUDIO
TITLE "Romu"
PERFORMER "Muhal Richard Abrams & Roscoe Mitchell"
FLAGS DCP
INDEX 01 00:00:00
FILE "02 - Non-Cognitive Aspects Of The City I.wav" WAVE
TRACK 02 AUDIO
TITLE "Non-Cognitive Aspects Of The City I"
PERFORMER "Muhal Richard Abrams & Roscoe Mitchell"
FLAGS DCP
INDEX 01 00:00:00
FILE "03 - Non-Cognitive Aspects Of The City II.wav" WAVE
TRACK 03 AUDIO
TITLE "Non-Cognitive Aspects Of The City II"
PERFORMER "Muhal Richard Abrams & Roscoe Mitchell"
FLAGS DCP
INDEX 01 00:00:00
FILE "04 - Non-Cognitive Aspects Of The City III.wav" WAVE
TRACK 04 AUDIO
TITLE "Non-Cognitive Aspects Of The City III"
PERFORMER "Muhal Richard Abrams & Roscoe Mitchell"
FLAGS DCP
INDEX 01 00:00:00
FILE "05 - Mergertone.wav" WAVE
TRACK 05 AUDIO
TITLE "Mergertone"
PERFORMER "Muhal Richard Abrams & Roscoe Mitchell"
FLAGS DCP
INDEX 01 00:00:00
 
Лог проверки качества
d:\>d:\aucdtect -d/-m0 d:\zzz\*.wav
auCDtect: CD records authenticity detector, version 0.8.2
Copyright (c) 2004 Oleg Berngardt. All rights reserved.
Copyright (c) 2004 Alexander Djourik. All rights reserved.
------------------------------------------------------------
Processing file: [01. Romu.wav]
------------------------------------------------------------
This track looks like CDDA with probability 100%
------------------------------------------------------------
Processing file: [02. Non-Cognitive Aspects Of The City I.wav]
------------------------------------------------------------
This track looks like CDDA with probability 100%
------------------------------------------------------------
Processing file: [03. Non-Cognitive Aspects Of The City II.wav]
------------------------------------------------------------
This track looks like CDDA with probability 100%
------------------------------------------------------------
Processing file: [04. Non-Cognitive Aspects Of The City III.wav]
------------------------------------------------------------
This track looks like CDDA with probability 100%
------------------------------------------------------------
Processing file: [05. Mergertone.wav]
------------------------------------------------------------
This track looks like CDDA with probability 100%
------------------------------------------------------------
Final Conclusion:
------------------------------------------------------------
These tracks looks like CDDA with probability 100%
Доп. информация:
 
Album Info & AMG Review
(Muhal Richard Abrams / Roscoe Mitchell) - 1
(Composition: Roscoe Mitchell / Poem: Joseph Jarman) - 2,3,4
(Muhal Richard Abrams) - 5
Recorded at Philharmonic Hall, Ostrava, Czech Republic
Recorded by Jaroslav Stranavsky, Music Master, Slovakia
Mastering: Tom Hamilton
Executive producer: Thomas Buckner
Cover art: Muhal Richard Abrams
Design: Carin Fortin
Liner notes: George E. Lewis (Muhal Richard Abrams, Roscoe Mitchell, and the Work of the Postcolonial Composer)
Photography: Paul van Riel (Muhal Richard Abrams, (C)2009), Joseph Blough (Roscoe Mitchell, (C)2009)
Mutable Music's Spectrum is a short, LP-length disc featuring two masters of the middle ground between classical composition and jazz improvisation -- Muhal Richard Abrams and Roscoe Mitchell -- in a combined effort as improvisers, Romu, followed by two composed orchestral works performed by the Janácek Philharmonic under Petr Kotik; Non-Cognitive Aspects of the City -- by Mitchell, with a text of Joseph Jarman delivered by baritone Thomas Buckner -- and Mergertone by Abrams. Romu is a soulful duet between Abrams' piano and Mitchell's alto saxophone that represents both individual streams of searching and a spontaneous confluence of ideas; figures are effortlessly cast back and forth between the two players, are modified, these gestures lead to other things along the way and the whole journey ends very calmly and naturally at 12 minutes. Mitchell's Non-Cognitive Aspects of the City is both a narrated orchestral work (like Copland's Lincoln Portrait) and an orchestral lied, as vocalist Buckner is required both to speak and sing. The piece has a beautiful, Ivesian orchestration and Buckner does seem to be performing from the perspective of the "vox populi" similar to Ives' application of unison choral lines in works like Lincoln, the Great Commoner. Abrams' Mergertone, which also uses electronic keyboards at least at its start and later, a concertante solo piano part, is more impressionistic, declamatory, and spectral than the Mitchell, which has its text to provide continuity and direction. However, it could hold its own at a Darmstadt Festival without much trouble, but is not overtly Western stylistically or particularly "third stream," either.
Included in the book is a fine essay by George E. Lewis that reviews Mitchell and Abrams in the context of various pros and cons regarding improvisation and fixed music. It's a shame that the text of Jarman's poem isn't also included, but it is not as though one cannot divine the words from Buckner's delivery of them on the recording. Mutable Music's Spectrum demonstrates how Abrams and Mitchell can both be well inside the established norms of composition and improvisation and still tread somewhere off the path; it likewise demonstrates the vital contributions these masters continue to make in the realm of American music.
 
Состав
Muhal Richard Abrams: piano (1)
Roscoe Mitchell: saxophone (1)
Thomas Buckner: baritone (2,3,4)
Janacek Philharmonic / Petr Kotik: conductor (2,3,4,5)
По всем вопросам пишите личное сообщение пользователю M0p94ok.
02:31
314
Нет комментариев. Ваш будет первым!