Вы используете незарегистрированную версию компонента "Вкладки"!

Поиск

(Avant-Garde Jazz, Modern Composition) Brad Dutz - Railroads - 1995, FLAC (tracks+.cue), lossless

(Avant-Garde Jazz, Modern Composition) Brad Dutz - Railroads - 1995, FLAC (tracks+.cue), lossless
Треклист:
Brad Dutz / Railroads
Жанр: Avant-Garde Jazz, Modern Composition
Страна-производитель диска: US
Год издания: 1995
Издатель (лейбл): 9 Winds
Номер по каталогу: NWCD0178
Страна: US
Аудиокодек: FLAC (*.flac)
Тип рипа: tracks+.cue
Битрейт аудио: lossless
Продолжительность: 73:05
Источник (релизер): свой фирменный диск
Наличие сканов в содержимом раздачи: нет
Треклист:
1 Wriggler 5:16
2 Railroads 5:31
3 Hanging Foliage 5:56
4 Collapsing Inward 1:43
5 Soybean Capitol 5:34
6 Moose Are Browsers 4:05
7 Tune For Tiny Man 5:58
8 Elk With Flee 5:38
9 Tom Apron 5:04
10 Purchase Products 4:43
11 Spiny Newt 3:54
12 Purchase Services 5:50
13 Wheat Harvest 5:42
14 Residue Of Essence 6:42
 
Лог создания рипа
Exact Audio Copy V1.0 beta 2 from 29. April 2011
EAC extraction logfile from 22. November 2012, 20:54
Brad Dutz / Railroads
Used drive : PIONEER DVD-RW DVR-115D Adapter: 0 ID: 0
Read mode : Secure
Utilize accurate stream : Yes
Defeat audio cache : Yes
Make use of C2 pointers : No
Read offset correction : 48
Overread into Lead-In and Lead-Out : No
Fill up missing offset samples with silence : Yes
Delete leading and trailing silent blocks : No
Null samples used in CRC calculations : Yes
Used interface : Installed external ASPI interface
Gap handling : Appended to previous track
Used output format : User Defined Encoder
Selected bitrate : 896 kBit/s
Quality : High
Add ID3 tag : No
Command line compressor : C:\Program Files\Exact Audio Copy\FLAC\FLAC.EXE
Additional command line options : -6 -V -T "ARTIST=%artist%" -T "TITLE=%title%" -T "ALBUM=%albumtitle%" -T "DATE=%year%" -T "TRACKNUMBER=%tracknr%" -T "GENRE=%genre%" -T "COMMENT=%comment%" -T "BAND=%albuminterpret%" -T "COMPOSER=%composer%" %haslyrics%--ta
TOC of the extracted CD
Track | Start | Length | Start sector | End sector
---------------------------------------------------------
1 | 0:00.00 | 5:23.47 | 0 | 24271
2 | 5:23.47 | 5:37.58 | 24272 | 49604
3 | 11:01.30 | 6:01.45 | 49605 | 76724
4 | 17:03.00 | 1:48.54 | 76725 | 84878
5 | 18:51.54 | 5:43.00 | 84879 | 110603
6 | 24:34.54 | 4:13.26 | 110604 | 129604
7 | 28:48.05 | 6:05.37 | 129605 | 157016
8 | 34:53.42 | 5:45.60 | 157017 | 182951
9 | 40:39.27 | 5:10.10 | 182952 | 206211
10 | 45:49.37 | 4:48.40 | 206212 | 227851
11 | 50:38.02 | 3:59.30 | 227852 | 245806
12 | 54:37.32 | 5:54.55 | 245807 | 272411
13 | 60:32.12 | 5:48.23 | 272412 | 298534
14 | 66:20.35 | 6:45.20 | 298535 | 328929
Track 1
Filename D:\zzz\01 - Wriggler.wav
Pre-gap length 0:00:02.00
Peak level 99.0 %
Extraction speed 5.0 X
Track quality 100.0 %
Test CRC 2908D160
Copy CRC 2908D160
Track not present in AccurateRip database
Copy OK
Track 2
Filename D:\zzz\02 - Railroads.wav
Pre-gap length 0:00:06.50
Peak level 100.0 %
Extraction speed 5.6 X
Track quality 100.0 %
Test CRC 1FDB3F39
Copy CRC 1FDB3F39
Track not present in AccurateRip database
Copy OK
Track 3
Filename D:\zzz\03 - Hanging Foliage.wav
Pre-gap length 0:00:06.08
Peak level 99.0 %
Extraction speed 6.2 X
Track quality 100.0 %
Test CRC 1BCBF5AA
Copy CRC 1BCBF5AA
Track not present in AccurateRip database
Copy OK
Track 4
Filename D:\zzz\04 - Collapsing Inward.wav
Pre-gap length 0:00:04.28
Peak level 99.0 %
Extraction speed 5.3 X
Track quality 100.0 %
Test CRC 6A492EAA
Copy CRC 6A492EAA
Track not present in AccurateRip database
Copy OK
Track 5
Filename D:\zzz\05 - Soybean Capitol.wav
Pre-gap length 0:00:05.04
Peak level 99.0 %
Extraction speed 5.3 X
Track quality 99.9 %
Test CRC 0AB7FB9C
Copy CRC 0AB7FB9C
Track not present in AccurateRip database
Copy OK
Track 6
Filename D:\zzz\06 - Moose Are Browsers.wav
Pre-gap length 0:00:08.02
Peak level 100.0 %
Extraction speed 6.9 X
Track quality 100.0 %
Test CRC BA4CAE2D
Copy CRC BA4CAE2D
Track not present in AccurateRip database
Copy OK
Track 7
Filename D:\zzz\07 - Tune For Tiny Man.wav
Pre-gap length 0:00:07.43
Peak level 88.7 %
Extraction speed 7.6 X
Track quality 100.0 %
Test CRC ED2BA666
Copy CRC ED2BA666
Track not present in AccurateRip database
Copy OK
Track 8
Filename D:\zzz\08 - Elk will Flee.wav
Pre-gap length 0:00:06.55
Peak level 100.0 %
Extraction speed 7.9 X
Track quality 100.0 %
Test CRC AC4F4F4B
Copy CRC AC4F4F4B
Track not present in AccurateRip database
Copy OK
Track 9
Filename D:\zzz\09 - Torn Apron.wav
Pre-gap length 0:00:08.15
Peak level 99.0 %
Extraction speed 8.1 X
Track quality 100.0 %
Test CRC 5C1F798B
Copy CRC 5C1F798B
Track not present in AccurateRip database
Copy OK
Track 10
Filename D:\zzz\10 - Purchase Products.wav
Pre-gap length 0:00:05.40
Peak level 100.0 %
Extraction speed 8.3 X
Track quality 100.0 %
Test CRC F04BFE8E
Copy CRC F04BFE8E
Track not present in AccurateRip database
Copy OK
Track 11
Filename D:\zzz\11 - Spiny Newt.wav
Pre-gap length 0:00:05.30
Peak level 99.0 %
Extraction speed 7.5 X
Track quality 99.9 %
Test CRC 395A1706
Copy CRC 395A1706
Track not present in AccurateRip database
Copy OK
Track 12
Filename D:\zzz\12 - Purchase Services.wav
Pre-gap length 0:00:04.52
Peak level 91.0 %
Extraction speed 9.1 X
Track quality 100.0 %
Test CRC 50CE26F7
Copy CRC 50CE26F7
Track not present in AccurateRip database
Copy OK
Track 13
Filename D:\zzz\13 - Wheat Harvest.wav
Pre-gap length 0:00:03.72
Peak level 79.4 %
Extraction speed 9.3 X
Track quality 100.0 %
Test CRC 178D0BBE
Copy CRC 178D0BBE
Track not present in AccurateRip database
Copy OK
Track 14
Filename D:\zzz\14 - Residue Of Essence.wav
Pre-gap length 0:00:06.00
Peak level 89.3 %
Extraction speed 9.8 X
Track quality 100.0 %
Test CRC F7B060F6
Copy CRC F7B060F6
Track not present in AccurateRip database
Copy OK
None of the tracks are present in the AccurateRip database
No errors occurred
End of status report
==== Log checksum 58A670FCC64E960AC7D3050AFC9F9CBEED36F07880425123BF0A78CA763F3F28 ====
 
Содержание индексной карты (.CUE)
REM GENRE Jazz
REM DATE 1995
REM DISCID B411210E
REM COMMENT "ExactAudioCopy v1.0b2"
PERFORMER "Brad Dutz"
TITLE "Railroads"
FILE "01 - Wriggler.wav" WAVE
TRACK 01 AUDIO
TITLE "Wriggler"
PERFORMER "Brad Dutz"
INDEX 01 00:00:00
TRACK 02 AUDIO
TITLE "Railroads"
PERFORMER "Brad Dutz"
INDEX 00 05:16:72
FILE "02 - Railroads.wav" WAVE
INDEX 01 00:00:00
TRACK 03 AUDIO
TITLE "Hanging Foliage"
PERFORMER "Brad Dutz"
INDEX 00 05:31:50
FILE "03 - Hanging Foliage.wav" WAVE
INDEX 01 00:00:00
TRACK 04 AUDIO
TITLE "Collapsing Inward"
PERFORMER "Brad Dutz"
INDEX 00 05:57:17
FILE "04 - Collapsing Inward.wav" WAVE
INDEX 01 00:00:00
TRACK 05 AUDIO
TITLE "Soybean Capitol"
PERFORMER "Brad Dutz"
INDEX 00 01:43:50
FILE "05 - Soybean Capitol.wav" WAVE
INDEX 01 00:00:00
TRACK 06 AUDIO
TITLE "Moose Are Browsers"
PERFORMER "Brad Dutz"
INDEX 00 05:34:73
FILE "06 - Moose Are Browsers.wav" WAVE
INDEX 01 00:00:00
TRACK 07 AUDIO
TITLE "Tune For Tiny Man"
PERFORMER "Brad Dutz"
INDEX 00 04:05:58
FILE "07 - Tune For Tiny Man.wav" WAVE
INDEX 01 00:00:00
TRACK 08 AUDIO
TITLE "Elk will Flee"
PERFORMER "Brad Dutz"
INDEX 00 05:58:57
FILE "08 - Elk will Flee.wav" WAVE
INDEX 01 00:00:00
TRACK 09 AUDIO
TITLE "Torn Apron"
PERFORMER "Brad Dutz"
INDEX 00 05:37:45
FILE "09 - Torn Apron.wav" WAVE
INDEX 01 00:00:00
TRACK 10 AUDIO
TITLE "Purchase Products"
PERFORMER "Brad Dutz"
INDEX 00 05:04:45
FILE "10 - Purchase Products.wav" WAVE
INDEX 01 00:00:00
TRACK 11 AUDIO
TITLE "Spiny Newt"
PERFORMER "Brad Dutz"
INDEX 00 04:43:10
FILE "11 - Spiny Newt.wav" WAVE
INDEX 01 00:00:00
TRACK 12 AUDIO
TITLE "Purchase Services"
PERFORMER "Brad Dutz"
INDEX 00 03:54:53
FILE "12 - Purchase Services.wav" WAVE
INDEX 01 00:00:00
TRACK 13 AUDIO
TITLE "Wheat Harvest"
PERFORMER "Brad Dutz"
INDEX 00 05:50:58
FILE "13 - Wheat Harvest.wav" WAVE
INDEX 01 00:00:00
TRACK 14 AUDIO
TITLE "Residue Of Essence"
PERFORMER "Brad Dutz"
INDEX 00 05:42:23
FILE "14 - Residue Of Essence.wav" WAVE
INDEX 01 00:00:00
 
Лог проверки качества
d:\>d:\aucdtect -d/-m0 d:\zzz\*.wav
auCDtect: CD records authenticity detector, version 0.8.2
Copyright (c) 2004 Oleg Berngardt. All rights reserved.
Copyright (c) 2004 Alexander Djourik. All rights reserved.
------------------------------------------------------------
Processing file: [01. Wriggler.wav]
------------------------------------------------------------
This track looks like CDDA with probability 100%
------------------------------------------------------------
Processing file: [02. Railroads.wav]
------------------------------------------------------------
This track looks like CDDA with probability 100%
------------------------------------------------------------
Processing file: [03. Hanging Foliage.wav]
------------------------------------------------------------
This track looks like CDDA with probability 99%
------------------------------------------------------------
Processing file: [04. Collapsing Inward.wav]
------------------------------------------------------------
This track looks like CDDA with probability 100%
------------------------------------------------------------
Processing file: [05. Soybean Capitol.wav]
------------------------------------------------------------
This track looks like CDDA with probability 100%
------------------------------------------------------------
Processing file: [06. Moose Are Browsers.wav]
------------------------------------------------------------
This track looks like CDDA with probability 100%
------------------------------------------------------------
Processing file: [07. Tune For Tiny Man.wav]
------------------------------------------------------------
This track looks like CDDA with probability 99%
------------------------------------------------------------
Processing file: [08. Elk will Flee.wav]
------------------------------------------------------------
This track looks like CDDA with probability 100%
------------------------------------------------------------
Processing file: [09. Torn Apron.wav]
------------------------------------------------------------
This track looks like CDDA with probability 100%
------------------------------------------------------------
Processing file: [10. Purchase Products.wav]
------------------------------------------------------------
This track looks like CDDA with probability 100%
------------------------------------------------------------
Processing file: [11. Spiny Newt.wav]
------------------------------------------------------------
This track looks like CDDA with probability 100%
------------------------------------------------------------
Processing file: [12. Purchase Services.wav]
------------------------------------------------------------
This track looks like CDDA with probability 100%
------------------------------------------------------------
Processing file: [13. Wheat Harvest.wav]
------------------------------------------------------------
This track looks like CDDA with probability 100%
------------------------------------------------------------
Processing file: [14. Residue Of Essence.wav]
------------------------------------------------------------
This track looks like CDDA with probability 100%
------------------------------------------------------------
Final Conclusion:
------------------------------------------------------------
These tracks looks like CDDA with probability 100%
 
Состав
Double Bass, Tuba – Trey Henry
Mandolin, Banjo, Electric Guitar, Acoustic Guitar – Jim Hershman
Marimba, Xylophone, Vibraphone, Bells, Marimba [Glass], Goblet Drum [Zarb] – Brad Dutz
Soprano Saxophone, Alto Saxophone, Clarinet [Bb], Bass Clarinet, Flute – Kim Richmond
По всем вопросам пишите личное сообщение пользователю M0p94ok.
05:42
134
Нет комментариев. Ваш будет первым!