Поиск

(Avant-Garde Jazz, Free Improvisation) Submedia (Brad Dutz, Bob Mair, Dave Karasony) - Suffocating City - 1992, FLAC (tracks+.cue), lossless

(Avant-Garde Jazz, Free Improvisation) Submedia (Brad Dutz, Bob Mair, Dave Karasony) - Suffocating City - 1992, FLAC (tracks+.cue), lossless
Треклист:
Submedia (Brad Dutz, Bob Mair, Dave Karasony) / Suffocating City
Жанр: Avant-Garde Jazz, Free Improvisation
Страна-производитель диска: US
Год издания: 1992
Издатель (лейбл): 9 Winds
Номер по каталогу: NWCD 0149
Страна: US
Аудиокодек: FLAC (*.flac)
Тип рипа: tracks+.cue
Битрейт аудио: lossless
Продолжительность: 66:31
Источник (релизер): свой фирменный диск
Наличие сканов в содержимом раздачи: нет
Треклист:
1 Suffocating City 9:24
2 Thorax 4:55
3 Warm Ice 7:36
4 Metal Sculpture 0:36
5 Itch 11:45
6 Bailing On The Rack 3:54
7 I Sense The Worm 8:09
8 Nuclear Soup 6:56
9 Smallard And Melissa 3:00
10 Ned's Dream 0:47
11 Axle Cid 7:40
 
Лог создания рипа
Exact Audio Copy V1.0 beta 2 from 29. April 2011
EAC extraction logfile from 22. November 2012, 21:20
Submedia / Suffocating City
Used drive : PIONEER DVD-RW DVR-115D Adapter: 0 ID: 0
Read mode : Secure
Utilize accurate stream : Yes
Defeat audio cache : Yes
Make use of C2 pointers : No
Read offset correction : 48
Overread into Lead-In and Lead-Out : No
Fill up missing offset samples with silence : Yes
Delete leading and trailing silent blocks : No
Null samples used in CRC calculations : Yes
Used interface : Installed external ASPI interface
Gap handling : Appended to previous track
Used output format : User Defined Encoder
Selected bitrate : 896 kBit/s
Quality : High
Add ID3 tag : No
Command line compressor : C:\Program Files\Exact Audio Copy\FLAC\FLAC.EXE
Additional command line options : -6 -V -T "ARTIST=%artist%" -T "TITLE=%title%" -T "ALBUM=%albumtitle%" -T "DATE=%year%" -T "TRACKNUMBER=%tracknr%" -T "GENRE=%genre%" -T "COMMENT=%comment%" -T "BAND=%albuminterpret%" -T "COMPOSER=%composer%" %haslyrics%--ta
TOC of the extracted CD
Track | Start | Length | Start sector | End sector
---------------------------------------------------------
1 | 0:00.00 | 9:30.40 | 0 | 42789
2 | 9:30.40 | 5:05.68 | 42790 | 65732
3 | 14:36.33 | 7:47.30 | 65733 | 100787
4 | 22:23.63 | 0:47.12 | 100788 | 104324
5 | 23:11.00 | 11:56.08 | 104325 | 158032
6 | 35:07.08 | 4:01.27 | 158033 | 176134
7 | 39:08.35 | 8:22.20 | 176135 | 213804
8 | 47:30.55 | 7:08.38 | 213805 | 245942
9 | 54:39.18 | 3:13.72 | 245943 | 260489
10 | 57:53.15 | 0:57.03 | 260490 | 264767
11 | 58:50.18 | 7:40.62 | 264768 | 299329
Track 1
Filename D:\zzz\01 - Suffocating City.wav
Pre-gap length 0:00:02.00
Peak level 95.1 %
Extraction speed 5.5 X
Track quality 100.0 %
Test CRC 746DAFCC
Copy CRC 746DAFCC
Track not present in AccurateRip database
Copy OK
Track 2
Filename D:\zzz\02 - Thorax.wav
Pre-gap length 0:00:06.42
Peak level 94.2 %
Extraction speed 5.9 X
Track quality 100.0 %
Test CRC BADE4B1F
Copy CRC BADE4B1F
Track not present in AccurateRip database
Copy OK
Track 3
Filename D:\zzz\03 - Warm Ice.wav
Pre-gap length 0:00:10.18
Peak level 95.1 %
Extraction speed 6.7 X
Track quality 100.0 %
Test CRC AD383B0B
Copy CRC AD383B0B
Track not present in AccurateRip database
Copy OK
Track 4
Filename D:\zzz\04 - Metal Sculpture.wav
Pre-gap length 0:00:11.10
Peak level 46.0 %
Extraction speed 4.1 X
Track quality 100.0 %
Test CRC 04325F28
Copy CRC 04325F28
Track not present in AccurateRip database
Copy OK
Track 5
Filename D:\zzz\05 - Itch.wav
Pre-gap length 0:00:10.32
Peak level 94.3 %
Extraction speed 7.4 X
Track quality 99.9 %
Test CRC 795BCCEE
Copy CRC 795BCCEE
Track not present in AccurateRip database
Copy OK
Track 6
Filename D:\zzz\06 - Bailing On The Rack.wav
Pre-gap length 0:00:11.18
Peak level 84.1 %
Extraction speed 6.7 X
Track quality 99.9 %
Test CRC FF40F65C
Copy CRC FF40F65C
Track not present in AccurateRip database
Copy OK
Track 7
Filename D:\zzz\07 - I Sense The Worm.wav
Pre-gap length 0:00:07.02
Peak level 94.8 %
Extraction speed 8.5 X
Track quality 100.0 %
Test CRC 2ECD0E4B
Copy CRC 2ECD0E4B
Track not present in AccurateRip database
Copy OK
Track 8
Filename D:\zzz\08 - Nuclear Soup.wav
Pre-gap length 0:00:12.67
Peak level 94.3 %
Extraction speed 8.8 X
Track quality 100.0 %
Test CRC 0790400F
Copy CRC 0790400F
Track not present in AccurateRip database
Copy OK
Track 9
Filename D:\zzz\09 - Smallard And Melissa.wav
Pre-gap length 0:00:12.33
Peak level 94.5 %
Extraction speed 8.1 X
Track quality 100.0 %
Test CRC E2543C71
Copy CRC E2543C71
Track not present in AccurateRip database
Copy OK
Track 10
Filename D:\zzz\10 - Ned's Dream.wav
Pre-gap length 0:00:13.50
Peak level 45.1 %
Extraction speed 6.0 X
Track quality 100.0 %
Test CRC 72E9DA8F
Copy CRC 72E9DA8F
Track not present in AccurateRip database
Copy OK
Track 11
Filename D:\zzz\11 - Axle Cid.wav
Pre-gap length 0:00:09.23
Peak level 94.3 %
Extraction speed 8.9 X
Track quality 99.9 %
Test CRC F3B84EE1
Copy CRC F3B84EE1
Track not present in AccurateRip database
Copy OK
None of the tracks are present in the AccurateRip database
No errors occurred
End of status report
==== Log checksum 1873FC9BB9B210F0BA7A7A1177356A355DD73EDE418EDB98727A2B81F0EA22A9 ====
 
Содержание индексной карты (.CUE)
REM GENRE Avantgarde
REM DATE 1992
REM DISCID 990F970B
REM COMMENT "ExactAudioCopy v1.0b2"
PERFORMER "Submedia"
TITLE "Suffocating City"
FILE "01 - Suffocating City.wav" WAVE
TRACK 01 AUDIO
TITLE "Suffocating City"
PERFORMER "Submedia"
INDEX 01 00:00:00
TRACK 02 AUDIO
TITLE "Thorax"
PERFORMER "Submedia"
INDEX 00 09:23:73
FILE "02 - Thorax.wav" WAVE
INDEX 01 00:00:00
TRACK 03 AUDIO
TITLE "Warm Ice"
PERFORMER "Submedia"
INDEX 00 04:55:50
FILE "03 - Warm Ice.wav" WAVE
INDEX 01 00:00:00
TRACK 04 AUDIO
TITLE "Metal Sculpture"
PERFORMER "Submedia"
INDEX 00 07:36:20
FILE "04 - Metal Sculpture.wav" WAVE
INDEX 01 00:00:00
TRACK 05 AUDIO
TITLE "Itch"
PERFORMER "Submedia"
INDEX 00 00:36:55
FILE "05 - Itch.wav" WAVE
INDEX 01 00:00:00
TRACK 06 AUDIO
TITLE "Bailing On The Rack"
PERFORMER "Submedia"
INDEX 00 11:44:65
FILE "06 - Bailing On The Rack.wav" WAVE
INDEX 01 00:00:00
TRACK 07 AUDIO
TITLE "I Sense The Worm"
PERFORMER "Submedia"
INDEX 00 03:54:25
FILE "07 - I Sense The Worm.wav" WAVE
INDEX 01 00:00:00
TRACK 08 AUDIO
TITLE "Nuclear Soup"
PERFORMER "Submedia"
INDEX 00 08:09:28
FILE "08 - Nuclear Soup.wav" WAVE
INDEX 01 00:00:00
TRACK 09 AUDIO
TITLE "Smallard And Melissa"
PERFORMER "Submedia"
INDEX 00 06:56:05
FILE "09 - Smallard And Melissa.wav" WAVE
INDEX 01 00:00:00
TRACK 10 AUDIO
TITLE "Ned's Dream"
PERFORMER "Submedia"
INDEX 00 03:00:22
FILE "10 - Ned's Dream.wav" WAVE
INDEX 01 00:00:00
TRACK 11 AUDIO
TITLE "Axle Cid"
PERFORMER "Submedia"
INDEX 00 00:47:55
FILE "11 - Axle Cid.wav" WAVE
INDEX 01 00:00:00
 
Лог проверки качества
d:\>d:\aucdtect -d/-m0 d:\zzz\*.wav
auCDtect: CD records authenticity detector, version 0.8.2
Copyright (c) 2004 Oleg Berngardt. All rights reserved.
Copyright (c) 2004 Alexander Djourik. All rights reserved.
------------------------------------------------------------
Processing file: [01. Suffocating City.wav]
------------------------------------------------------------
This track looks like CDDA with probability 100%
------------------------------------------------------------
Processing file: [02. Thorax.wav]
------------------------------------------------------------
This track looks like CDDA with probability 100%
------------------------------------------------------------
Processing file: [03. Warm Ice.wav]
------------------------------------------------------------
This track looks like CDDA with probability 100%
------------------------------------------------------------
Processing file: [04. Metal Sculpture.wav]
------------------------------------------------------------
This track looks like CDDA with probability 100%
------------------------------------------------------------
Processing file: [05. Itch.wav]
------------------------------------------------------------
This track looks like CDDA with probability 99%
------------------------------------------------------------
Processing file: [06. Bailing On The Rack.wav]
------------------------------------------------------------
This track looks like CDDA with probability 100%
------------------------------------------------------------
Processing file: [07. I Sense The Worm.wav]
------------------------------------------------------------
This track looks like CDDA with probability 100%
------------------------------------------------------------
Processing file: [08. Nuclear Soup.wav]
------------------------------------------------------------
This track looks like CDDA with probability 92%
------------------------------------------------------------
Processing file: [09. Smallard And Melissa.wav]
------------------------------------------------------------
This track looks like CDDA with probability 99%
------------------------------------------------------------
Processing file: [10. Ned's Dream.wav]
------------------------------------------------------------
This track looks like CDDA with probability 100%
------------------------------------------------------------
Processing file: [11. Axle Cid.wav]
------------------------------------------------------------
This track looks like CDDA with probability 100%
------------------------------------------------------------
Final Conclusion:
------------------------------------------------------------
These tracks looks like CDDA with probability 100%
 
Состав
Acoustic Bass, Bass [Six-string & Fretless], Guitar, Kalimba, Recorder, Voice, Percussion, Whistle, Autoharp, Instruments [Snake Charmer] – Bob Mair
Composed By – Submedia
Drums, Percussion, Whistle – Dave Karasony
Xylophone, Vibraphone, Marimba, Synthesizer [Arp Axxe], Trumpet, Trombone, Melodica, Percussion, Voice, Sampler [Midi Mallet Controlled], Whistle – Brad Dutz
По всем вопросам пишите личное сообщение пользователю M0p94ok.
05:42
163
Нет комментариев. Ваш будет первым!