Вы используете незарегистрированную версию компонента "Вкладки"!

Поиск

(Avant-Garde Jazz / Modal Music) John Coltrane - The Very Best Of John Coltrane - 2001, FLAC (image+.cue), lossless

Треклист:
John Coltrane - The Very Best Of John Coltrane

Жанр: Avant-Garde Jazz / Modal Music
Год выпуска диска: 2001
Производитель диска: Impulse!
Аудио кодек: FLAC
Тип рипа: image+.cue
Битрейт аудио: lossless
Продолжительность: 1:14:30
Трэклист:
01 A Love Supreme, Part I: Acknowledgement 7:47
02 In a Sentimental Mood 4:16
03 Bessie's Blues 3:34
04 Naima 7:07
05 Afro Blue 10:48
06 Lush Life 5:28
07 Crescent 8:44
08 Impressions 4:35
09 Alabama 5:09
10 My Favorite Things 17:19
 
EAC.log
Exact Audio Copy V0.99 prebeta 4 from 23. January 2008
EAC extraction logfile from 21. April 2009, 23:01
John Coltrane / The Very Best Of John Coltrane
Used drive : PIONEER DVD-RW DVR-110D Adapter: 1 ID: 0
Read mode : Secure
Utilize accurate stream : Yes
Defeat audio cache : Yes
Make use of C2 pointers : No
Read offset correction : 48
Overread into Lead-In and Lead-Out : No
Fill up missing offset samples with silence : Yes
Delete leading and trailing silent blocks : No
Null samples used in CRC calculations : Yes
Used interface : Native Win32 interface for Win NT & 2000
Used output format : User Defined Encoder
Selected bitrate : 768 kBit/s
Quality : High
Add ID3 tag : No
Command line compressor : C:\Program Files\Exact Audio Copy\Flac\flac.exe
Additional command line options : -8 -V %s -o %d
TOC of the extracted CD
Track | Start | Length | Start sector | End sector
---------------------------------------------------------
1 | 0:00.00 | 7:47.27 | 0 | 35051
2 | 7:47.27 | 4:16.15 | 35052 | 54266
3 | 12:03.42 | 3:34.13 | 54267 | 70329
4 | 15:37.55 | 7:07.30 | 70330 | 102384
5 | 22:45.10 | 10:48.22 | 102385 | 151006
6 | 33:33.32 | 5:28.63 | 151007 | 175669
7 | 39:02.20 | 8:44.17 | 175670 | 214986
8 | 47:46.37 | 4:35.30 | 214987 | 235641
9 | 52:21.67 | 5:09.70 | 235642 | 258886
10 | 57:31.62 | 17:19.50 | 258887 | 336861
Range status and errors
Selected range
Filename E:\rutracker.org\The Very Best Of John Coltrane\John Coltrane - The Very Best Of John Coltrane.wav
Peak level 100.0 %
Range quality 99.9 %
Test CRC A94129AF
Copy CRC A94129AF
Copy OK
No errors occurred
AccurateRip summary
Track 1 accurately ripped (confidence 7) [87FA67A9]
Track 2 accurately ripped (confidence 7) [EC31474E]
Track 3 accurately ripped (confidence 7) [22BF3C21]
Track 4 accurately ripped (confidence 7) [12340E28]
Track 5 accurately ripped (confidence 7) [10DE495B]
Track 6 accurately ripped (confidence 7) [772ADA4B]
Track 7 accurately ripped (confidence 7) [5049A202]
Track 8 accurately ripped (confidence 7) [723FF51B]
Track 9 accurately ripped (confidence 7) [578C0E21]
Track 10 accurately ripped (confidence 6) [F20DFBF6]
All tracks accurately ripped
End of status report
По всем вопросам пишите личное сообщение пользователю M0p94ok.
10:30
200
Нет комментариев. Ваш будет первым!