Вы используете незарегистрированную версию компонента "Вкладки"!

Поиск

(Avant-Garde / Free Improvisation) Mark Dresser & Frances-Marie Uitti - Sonomondo - 2000, FLAC (image+.cue), lossless

(Avant-Garde / Free Improvisation) Mark Dresser & Frances-Marie Uitti - Sonomondo - 2000, FLAC (image+.cue), lossless
Треклист:
Mark Dresser & Frances-Marie Uitti - Sonomondo
Жанр: Avant-Garde / Free Improvisation
Год выпуска диска: 2000
Производитель диска: USA (Cryptogramophone CG104)
Аудио кодек: FLAC
Тип рипа: image+.cue
Битрейт аудио: lossless
Продолжительность: 43:01
Mark Dresser contrabass
Frances-Marie Uitti cello
1. Sonomondo
2. Grati
3. La Finestra
4. Montebell
5. Arcahuis
6. Sotto
7. Cielostraat
 
Reviews
Sonomondo is an amazing record of sonorous string experimentation. Frances-Marie Uitti is exhibits her unique skill: a two bow cello attack. With her right hand, she simultaneously uses two bows on her instrument. Several artists employing this technique acknowledge her skilled inventiveness. Known for making new jazz and other post-modern forms since 1972 in collaboration with Andrew Cyrille, Bob Ostertag, John Zorn and others, Dresser is master of the double-bass. The duo improvisations here are stunning and spooky, sizable sonic creations that explore the outer possibilities of both instruments. Sonomondo is an invitation to an entire new world of sound.
~ Tom Schulte, Outsight
Sonomondo is a duo recording of a seven-part suite by two of the most important contemporary string players in the world, both of whom have developed revolutionary extended techniques. Cellist Frances-Marie Uitti, known primarily in avant garde classical circles, invented a style of playing with two bows in her right hand, allowing her to create four-voiced chords and more when she uses multiphonics and harmonics. Dresser, with outstanding jazz and classical credentials, has also invented a number of new techniques involving microphone placement and the production of harmonics, stops and glissandi. At times he creates unusual effects by striking his strings with a serrated stick. Dresser produces an enormous, powerful sonority, both arco and pizzicato; Uitti has a sweet tone. When playing together they can create a much wider variety of timbres than a conventional cello/bass duo could. But this recording is about more than technique. Uitti and Dresser, both accomplished improvisers, make music that ranges from lyrical to thunderous. Each rises to the challenge of playing with the other with creativity and imaginativeness. Hopefully, this is what low string playing in the new century will be like.
~ Harvey Pekar, JazzTimes
Two stringed instruments, three bows, no waiting, could be the motto for this disc. For the dusky, atmospheric sounds that arise from this session are partially created by Frances-Marie Uitti's unique technique. Using two bows, the New Music luminary is able to create so many voices that the overall effect is of an entire string section playing, rather than just the bass and cello. Not that New York downtowner Mark Dresser is left behind either. Multi-stylistic, with a thorough grounding in both so-called "serious" music as well as jazz, he can get almost as many resonant effects out of his instrument with just bows and fingers as Uitti produces with her double bows. Uitti has used her approach for years to interpret work by such modern composers as John Cage, Iannis Xenakis and Elliott Carter. But considering that all the music is copyright by the two, it would appear that Dresser's improv chops honed with the likes of Anthony Braxton, Mark Helias and Robert Dick transport her that much further into innovation. All and all, though, the most successful union comes on tracks like "Montebell," when the built up tension and slow release creates uncommon textures. Obviously, the CD has an overriding appeal for adventurous string fanciers.
~ Ken Waxman, Jazz Weekly
 
EAC Report
Exact Audio Copy V0.99 prebeta 4 from 23. January 2008
EAC extraction logfile from 21. March 2009, 21:03
Mark Dresser / Frances-Marie Uitti / Sonomondo
Used drive : TSSTcorpCD/DVDW SH-S182M Adapter: 2 ID: 1
Read mode : Secure
Utilize accurate stream : Yes
Defeat audio cache : Yes
Make use of C2 pointers : No
Read offset correction : 6
Overread into Lead-In and Lead-Out : No
Fill up missing offset samples with silence : Yes
Delete leading and trailing silent blocks : No
Null samples used in CRC calculations : Yes
Used interface : Installed external ASPI interface
Used output format : User Defined Encoder
Selected bitrate : 1024 kBit/s
Quality : High
Add ID3 tag : No
Command line compressor : C:\Program Files\Exact Audio Copy\FLAC\FLAC.EXE
Additional command line options : -8 -V -T "ARTIST=%a" -T "TITLE=%t" -T "ALBUM=%g" -T "DATE=%y" -T "TRACKNUMBER=%n" -T "GENRE=%m" -T "COMMENT=%e" %s -o %d
TOC of the extracted CD
Track | Start | Length | Start sector | End sector
---------------------------------------------------------
1 | 0:00.00 | 7:38.43 | 0 | 34392
2 | 7:38.43 | 8:53.69 | 34393 | 74436
3 | 16:32.37 | 5:18.61 | 74437 | 98347
4 | 21:51.23 | 4:47.38 | 98348 | 119910
5 | 26:38.61 | 7:36.38 | 119911 | 154148
6 | 34:15.24 | 3:31.25 | 154149 | 169998
7 | 37:46.49 | 5:14.55 | 169999 | 193603
Range status and errors
Selected range
Filename C:\Documents and Settings\Igor\My Documents\My Music\eac\Mark Dresser & Frances-Marie Uitti - Sonomondo.wav
Peak level 94.4 %
Range quality 100.0 %
Test CRC FA633B31
Copy CRC FA633B31
Copy OK
No errors occurred
AccurateRip summary
Track 1 not present in database
Track 2 not present in database
Track 3 not present in database
Track 4 not present in database
Track 5 not present in database
Track 6 not present in database
Track 7 not present in database
None of the tracks are present in the AccurateRip database
End of status report
Any questions -> support@pro-jazz.com. По всем вопросам пишите -> support@pro-jazz.com
10:31
191
Нет комментариев. Ваш будет первым!