Вы используете незарегистрированную версию компонента "Вкладки"!

Поиск

(Avant-Garde Jazz) Mikko Innanen, Jaak Sooäär (Sooaar) and Han Bennink - Spring Odyssey - 2006, FLAC (tracks+.cue), lossless

(Avant-Garde Jazz) Mikko Innanen, Jaak Sooäär (Sooaar) and Han Bennink - Spring Odyssey - 2006, FLAC (tracks+.cue), lossless
Треклист:
Mikko Innanen, Jaak Sooäär and Han Bennink - Spring Odyssey
Жанр: Avant-Garde Jazz
Страна-производитель диска: Finland
Год издания диска: 2006
Издатель (лейбл): TUM Records
Номер по каталогу: TUM CD 015
Аудиокодек: FLAC (*.flac)
Тип рипа: tracks+.cue
Битрейт аудио: lossless
Продолжительность: 60:54
Источник (релизер): вата / спасибо maken
Наличие сканов в содержимом раздачи: нет
Треклист:
1. South (02:43)
2. Far (03:02)
3. Away (02:14)
4. Grey (01:50)
5. Sea (05:09)
6. Ahead (05:48)
7. Trinkle Tinkle (04:47)
8. Floating (08:20)
9. Bermuda (04:21)
10. Delta (04:06)
11. Green (03:11)
12. Dreams (02:21)
13. Soon (05:07)
14. Reality (07:21)
Доп. информация:
Musicians:
MIKKO INNANEN - alto, soprano, tenor and baritone saxophones, ragelis
JAAK SOOÄÄR - guitar, guitar synthesizer, electronics, floor synthesizer
HAN BENNINK - drums
Recorded on 29 April 2003 at the Jumo Jazz Club, Helsinki
© 2006 TUM Records
MIKKO INNANEN, JAAK SOOÄÄR and HAN BENNINK - Spring Odyssey tumrecords.com
MIKKO INNANEN Official Site
MIKKO INNANEN from Wikipedia, the free encyclopedia
HAN BENNINK Official Site
HAN BENNINK drummerworld.com
HAN BENNINK from Wikipedia, the free encyclopedia
 
... photo ...
 
Лог создания рипа
Exact Audio Copy V1.0 beta 3 from 29. August 2011
EAC extraction logfile from 10. February 2012, 2:01
Mikko Innanen, Jaak Sooäär and Han Bennink / Spring Odyssey
Used drive : TSSTcorpCDDVDW SH-S223C Adapter: 2 ID: 0
Read mode : Secure
Utilize accurate stream : Yes
Defeat audio cache : Yes
Make use of C2 pointers : No
Read offset correction : 697
Overread into Lead-In and Lead-Out : No
Fill up missing offset samples with silence : Yes
Delete leading and trailing silent blocks : No
Null samples used in CRC calculations : Yes
Used interface : Native Win32 interface for Win NT & 2000
Gap handling : Appended to previous track
Used output format : User Defined Encoder
Selected bitrate : 896 kBit/s
Quality : High
Add ID3 tag : No
Command line compressor : K:\Exact Audio Copy\FLAC\FLAC.EXE
Additional command line options : -8 -V -T "ARTIST=%artist%" -T "TITLE=%title%" -T "ALBUM=%albumtitle%" -T "DATE=%year%" -T "TRACKNUMBER=%tracknr%" -T "GENRE=%genre%" -T "COMMENT=%comment%" -T "BAND=%albuminterpret%" -T "ALBUMARTIST=%albuminterpret%" -T "COMPOSER=%composer%" %haslyrics%--tag-from-file=LYRICS="%lyricsfile%"%haslyrics% -T "DISCNUMBER=%cdnumber%" -T "TOTALDISCS=%totalcds%" -T "TOTALTRACKS=%numtracks%" %hascover%--picture="%coverfile%"%hascover% %source% -o %dest%
TOC of the extracted CD
Track | Start | Length | Start sector | End sector
---------------------------------------------------------
1 | 0:00.00 | 2:44.03 | 0 | 12302
2 | 2:44.03 | 3:02.71 | 12303 | 26023
3 | 5:46.74 | 2:13.72 | 26024 | 36070
4 | 8:00.71 | 1:50.46 | 36071 | 44366
5 | 9:51.42 | 5:09.13 | 44367 | 67554
6 | 15:00.55 | 5:48.42 | 67555 | 93696
7 | 20:49.22 | 4:47.08 | 93697 | 115229
8 | 25:36.30 | 8:20.51 | 115230 | 152780
9 | 33:57.06 | 4:21.14 | 152781 | 172369
10 | 38:18.20 | 4:06.03 | 172370 | 190822
11 | 42:24.23 | 3:11.15 | 190823 | 205162
12 | 45:35.38 | 2:21.65 | 205163 | 215802
13 | 47:57.28 | 5:07.36 | 215803 | 238863
14 | 53:04.64 | 7:22.04 | 238864 | 272017
Track 1
Filename O:\My Music\Rips\Mikko Innanen, Jaak Sooäär and Han Bennink - Spring Odyssey (2006) [FLAC]\01. Mikko Innanen, Jaak Sooäär and Han Bennink - South.wav
Pre-gap length 0:00:02.00
Peak level 91.2 %
Extraction speed 1.8 X
Track quality 100.0 %
Test CRC 579261DB
Copy CRC 579261DB
Accurately ripped (confidence 1) [E7F40363] (AR v1)
Copy OK
Track 2
Filename O:\My Music\Rips\Mikko Innanen, Jaak Sooäär and Han Bennink - Spring Odyssey (2006) [FLAC]\02. Mikko Innanen, Jaak Sooäär and Han Bennink - Far.wav
Peak level 91.2 %
Extraction speed 1.7 X
Track quality 99.9 %
Test CRC EDFE0111
Copy CRC EDFE0111
Accurately ripped (confidence 1) [D5D79D3E] (AR v1)
Copy OK
Track 3
Filename O:\My Music\Rips\Mikko Innanen, Jaak Sooäär and Han Bennink - Spring Odyssey (2006) [FLAC]\03. Mikko Innanen, Jaak Sooäär and Han Bennink - Away.wav
Peak level 91.2 %
Extraction speed 2.0 X
Track quality 100.0 %
Test CRC AB397C0D
Copy CRC AB397C0D
Accurately ripped (confidence 1) [5BF1E4A1] (AR v1)
Copy OK
Track 4
Filename O:\My Music\Rips\Mikko Innanen, Jaak Sooäär and Han Bennink - Spring Odyssey (2006) [FLAC]\04. Mikko Innanen, Jaak Sooäär and Han Bennink - Grey.wav
Peak level 91.2 %
Extraction speed 2.0 X
Track quality 100.0 %
Test CRC 222C6E7D
Copy CRC 222C6E7D
Accurately ripped (confidence 1) [043803F4] (AR v1)
Copy OK
Track 5
Filename O:\My Music\Rips\Mikko Innanen, Jaak Sooäär and Han Bennink - Spring Odyssey (2006) [FLAC]\05. Mikko Innanen, Jaak Sooäär and Han Bennink - Sea.wav
Peak level 91.2 %
Extraction speed 2.6 X
Track quality 100.0 %
Test CRC 6BE61F3B
Copy CRC 6BE61F3B
Accurately ripped (confidence 1) [DD1DBDC6] (AR v1)
Copy OK
Track 6
Filename O:\My Music\Rips\Mikko Innanen, Jaak Sooäär and Han Bennink - Spring Odyssey (2006) [FLAC]\06. Mikko Innanen, Jaak Sooäär and Han Bennink - Ahead.wav
Peak level 91.2 %
Extraction speed 2.6 X
Track quality 99.9 %
Test CRC BF026285
Copy CRC BF026285
Accurately ripped (confidence 1) [1D47DF16] (AR v1)
Copy OK
Track 7
Filename O:\My Music\Rips\Mikko Innanen, Jaak Sooäär and Han Bennink - Spring Odyssey (2006) [FLAC]\07. Mikko Innanen, Jaak Sooäär and Han Bennink - Trinkle Tinkle.wav
Peak level 91.2 %
Extraction speed 3.0 X
Track quality 100.0 %
Test CRC 676ABDE4
Copy CRC 676ABDE4
Accurately ripped (confidence 1) [17ED251A] (AR v1)
Copy OK
Track 8
Filename O:\My Music\Rips\Mikko Innanen, Jaak Sooäär and Han Bennink - Spring Odyssey (2006) [FLAC]\08. Mikko Innanen, Jaak Sooäär and Han Bennink - Floating.wav
Peak level 91.2 %
Extraction speed 3.4 X
Track quality 100.0 %
Test CRC DD869BE7
Copy CRC DD869BE7
Accurately ripped (confidence 1) [8C8FD8CC] (AR v1)
Copy OK
Track 9
Filename O:\My Music\Rips\Mikko Innanen, Jaak Sooäär and Han Bennink - Spring Odyssey (2006) [FLAC]\09. Mikko Innanen, Jaak Sooäär and Han Bennink - Bermuda.wav
Peak level 91.2 %
Extraction speed 3.4 X
Track quality 100.0 %
Test CRC FFD90AD7
Copy CRC FFD90AD7
Accurately ripped (confidence 1) [F4284A54] (AR v1)
Copy OK
Track 10
Filename O:\My Music\Rips\Mikko Innanen, Jaak Sooäär and Han Bennink - Spring Odyssey (2006) [FLAC]\10. Mikko Innanen, Jaak Sooäär and Han Bennink - Delta.wav
Peak level 91.2 %
Extraction speed 3.1 X
Track quality 99.9 %
Test CRC DEFCDBCD
Copy CRC DEFCDBCD
Accurately ripped (confidence 1) [E07064D1] (AR v1)
Copy OK
Track 11
Filename O:\My Music\Rips\Mikko Innanen, Jaak Sooäär and Han Bennink - Spring Odyssey (2006) [FLAC]\11. Mikko Innanen, Jaak Sooäär and Han Bennink - Green.wav
Peak level 91.2 %
Extraction speed 2.9 X
Track quality 99.9 %
Test CRC 69E30360
Copy CRC 69E30360
Accurately ripped (confidence 1) [1EAF7DBC] (AR v1)
Copy OK
Track 12
Filename O:\My Music\Rips\Mikko Innanen, Jaak Sooäär and Han Bennink - Spring Odyssey (2006) [FLAC]\12. Mikko Innanen, Jaak Sooäär and Han Bennink - Dreams.wav
Peak level 91.2 %
Extraction speed 3.3 X
Track quality 100.0 %
Test CRC 82FB6FDB
Copy CRC 82FB6FDB
Accurately ripped (confidence 1) [25D516F5] (AR v1)
Copy OK
Track 13
Filename O:\My Music\Rips\Mikko Innanen, Jaak Sooäär and Han Bennink - Spring Odyssey (2006) [FLAC]\13. Mikko Innanen, Jaak Sooäär and Han Bennink - Soon.wav
Peak level 91.2 %
Extraction speed 3.9 X
Track quality 100.0 %
Test CRC A4D92BDE
Copy CRC A4D92BDE
Accurately ripped (confidence 1) [1DE76995] (AR v1)
Copy OK
Track 14
Filename O:\My Music\Rips\Mikko Innanen, Jaak Sooäär and Han Bennink - Spring Odyssey (2006) [FLAC]\14. Mikko Innanen, Jaak Sooäär and Han Bennink - Reality.wav
Peak level 91.2 %
Extraction speed 4.2 X
Track quality 100.0 %
Test CRC 097E1671
Copy CRC 097E1671
Accurately ripped (confidence 1) [E70FBE7E] (AR v1)
Copy OK
All tracks accurately ripped
No errors occurred
End of status report
---- CUETools DB Plugin V2.1.3
[CTDB TOCID: GYzyf6I8mqFQUgxg88ni7tXEXmU-] disk not present in database, Submit result: GYzyf6I8mqFQUgxg88ni7tXEXmU- has been uploaded
==== Log checksum 8E0A382110A801DBBA9E30B83FC8A3135478BBB84203291970C108D1F0E7D3EF ====
 
Содержание индексной карты (.CUE)
REM GENRE Jazz
REM DATE 2006
REM DISCID C50E2A0E
REM COMMENT "ExactAudioCopy v1.0b3"
PERFORMER "Mikko Innanen, Jaak Sooaar and Han Bennink"
TITLE "Spring Odyssey"
FILE "01. South.wav" WAVE
TRACK 01 AUDIO
TITLE "South"
PERFORMER "Mikko Innanen, Jaak Sooaar and Han Bennink"
ISRC FITU90600021
INDEX 01 00:00:00
FILE "02. Far.wav" WAVE
TRACK 02 AUDIO
TITLE "Far"
PERFORMER "Mikko Innanen, Jaak Sooaar and Han Bennink"
ISRC FITU90600021
INDEX 01 00:00:00
FILE "03. Away.wav" WAVE
TRACK 03 AUDIO
TITLE "Away"
PERFORMER "Mikko Innanen, Jaak Sooaar and Han Bennink"
ISRC FITU90600023
INDEX 01 00:00:00
FILE "04. Grey.wav" WAVE
TRACK 04 AUDIO
TITLE "Grey"
PERFORMER "Mikko Innanen, Jaak Sooaar and Han Bennink"
ISRC FITU90600024
INDEX 01 00:00:00
FILE "05. Sea.wav" WAVE
TRACK 05 AUDIO
TITLE "Sea"
PERFORMER "Mikko Innanen, Jaak Sooaar and Han Bennink"
ISRC FITU90600024
INDEX 01 00:00:00
FILE "06. Ahead.wav" WAVE
TRACK 06 AUDIO
TITLE "Ahead"
PERFORMER "Mikko Innanen, Jaak Sooaar and Han Bennink"
ISRC FITU90600025
INDEX 01 00:00:00
FILE "07. Trinkle Tinkle.wav" WAVE
TRACK 07 AUDIO
TITLE "Trinkle Tinkle"
PERFORMER "Mikko Innanen, Jaak Sooaar and Han Bennink"
ISRC FITU90600027
INDEX 01 00:00:00
FILE "08. Floating.wav" WAVE
TRACK 08 AUDIO
TITLE "Floating"
PERFORMER "Mikko Innanen, Jaak Sooaar and Han Bennink"
ISRC FITU90600028
INDEX 01 00:00:00
FILE "09. Bermuda.wav" WAVE
TRACK 09 AUDIO
TITLE "Bermuda"
PERFORMER "Mikko Innanen, Jaak Sooaar and Han Bennink"
ISRC FITU90600028
INDEX 01 00:00:00
FILE "10. Delta.wav" WAVE
TRACK 10 AUDIO
TITLE "Delta"
PERFORMER "Mikko Innanen, Jaak Sooaar and Han Bennink"
ISRC FITU90600030
INDEX 01 00:00:00
FILE "11. Green.wav" WAVE
TRACK 11 AUDIO
TITLE "Green"
PERFORMER "Mikko Innanen, Jaak Sooaar and Han Bennink"
ISRC FITU90600031
INDEX 01 00:00:00
FILE "12. Dreams.wav" WAVE
TRACK 12 AUDIO
TITLE "Dreams"
PERFORMER "Mikko Innanen, Jaak Sooaar and Han Bennink"
ISRC FITU90600032
INDEX 01 00:00:00
FILE "13. Soon.wav" WAVE
TRACK 13 AUDIO
TITLE "Soon"
PERFORMER "Mikko Innanen, Jaak Sooaar and Han Bennink"
ISRC FITU90600032
INDEX 01 00:00:00
FILE "14. Reality.wav" WAVE
TRACK 14 AUDIO
TITLE "Reality"
PERFORMER "Mikko Innanen, Jaak Sooaar and Han Bennink"
ISRC FITU90600034
INDEX 01 00:00:00
 
Audiochecker 2.0 beta (build 457)
AUDIOCHECKER v2.0 beta (build 457) - by Dester - opdester@freemail.hu
~~~~~~~~~~~~~~~~~~~~~~~~~~~~~~~~~~
Started at: среда, 29. 02. 2012. - 12:51.38
14 files found
01 -===- L:\rutracker.org_Audio CD\#_023_Mikko Innanen, Jaak Sooaar and Han Bennink - Spring Odyssey (2006)\Mikko Innanen, Jaak Sooaar and Han Bennink - Spring Odyssey (2006)\01. South.flac
Extracted successfully
Conclusion: this track is CDDA with probability 100%
Tempfile successfully deleted.
02 -===- L:\rutracker.org_Audio CD\#_023_Mikko Innanen, Jaak Sooaar and Han Bennink - Spring Odyssey (2006)\Mikko Innanen, Jaak Sooaar and Han Bennink - Spring Odyssey (2006)\02. Far.flac
Extracted successfully
Conclusion: this track is CDDA with probability 100%
Tempfile successfully deleted.
03 -===- L:\rutracker.org_Audio CD\#_023_Mikko Innanen, Jaak Sooaar and Han Bennink - Spring Odyssey (2006)\Mikko Innanen, Jaak Sooaar and Han Bennink - Spring Odyssey (2006)\03. Away.flac
Extracted successfully
Conclusion: this track is CDDA with probability 100%
Tempfile successfully deleted.
04 -===- L:\rutracker.org_Audio CD\#_023_Mikko Innanen, Jaak Sooaar and Han Bennink - Spring Odyssey (2006)\Mikko Innanen, Jaak Sooaar and Han Bennink - Spring Odyssey (2006)\04. Grey.flac
Extracted successfully
Conclusion: this track is CDDA with probability 100%
Tempfile successfully deleted.
05 -===- L:\rutracker.org_Audio CD\#_023_Mikko Innanen, Jaak Sooaar and Han Bennink - Spring Odyssey (2006)\Mikko Innanen, Jaak Sooaar and Han Bennink - Spring Odyssey (2006)\05. Sea.flac
Extracted successfully
Conclusion: this track is CDDA with probability 99%
Tempfile successfully deleted.
06 -===- L:\rutracker.org_Audio CD\#_023_Mikko Innanen, Jaak Sooaar and Han Bennink - Spring Odyssey (2006)\Mikko Innanen, Jaak Sooaar and Han Bennink - Spring Odyssey (2006)\06. Ahead.flac
Extracted successfully
Conclusion: this track is CDDA with probability 100%
Tempfile successfully deleted.
07 -===- L:\rutracker.org_Audio CD\#_023_Mikko Innanen, Jaak Sooaar and Han Bennink - Spring Odyssey (2006)\Mikko Innanen, Jaak Sooaar and Han Bennink - Spring Odyssey (2006)\07. Trinkle Tinkle.flac
Extracted successfully
Conclusion: this track is CDDA with probability 99%
Tempfile successfully deleted.
08 -===- L:\rutracker.org_Audio CD\#_023_Mikko Innanen, Jaak Sooaar and Han Bennink - Spring Odyssey (2006)\Mikko Innanen, Jaak Sooaar and Han Bennink - Spring Odyssey (2006)\08. Floating.flac
Extracted successfully
Conclusion: this track is CDDA with probability 100%
Tempfile successfully deleted.
09 -===- L:\rutracker.org_Audio CD\#_023_Mikko Innanen, Jaak Sooaar and Han Bennink - Spring Odyssey (2006)\Mikko Innanen, Jaak Sooaar and Han Bennink - Spring Odyssey (2006)\09. Bermuda.flac
Extracted successfully
Conclusion: this track is CDDA with probability 100%
Tempfile successfully deleted.
10 -===- L:\rutracker.org_Audio CD\#_023_Mikko Innanen, Jaak Sooaar and Han Bennink - Spring Odyssey (2006)\Mikko Innanen, Jaak Sooaar and Han Bennink - Spring Odyssey (2006)\10. Delta.flac
Extracted successfully
Conclusion: this track is CDDA with probability 100%
Tempfile successfully deleted.
11 -===- L:\rutracker.org_Audio CD\#_023_Mikko Innanen, Jaak Sooaar and Han Bennink - Spring Odyssey (2006)\Mikko Innanen, Jaak Sooaar and Han Bennink - Spring Odyssey (2006)\11. Green.flac
Extracted successfully
Conclusion: this track is CDDA with probability 100%
Tempfile successfully deleted.
12 -===- L:\rutracker.org_Audio CD\#_023_Mikko Innanen, Jaak Sooaar and Han Bennink - Spring Odyssey (2006)\Mikko Innanen, Jaak Sooaar and Han Bennink - Spring Odyssey (2006)\12. Dreams.flac
Extracted successfully
Conclusion: this track is CDDA with probability 100%
Tempfile successfully deleted.
13 -===- L:\rutracker.org_Audio CD\#_023_Mikko Innanen, Jaak Sooaar and Han Bennink - Spring Odyssey (2006)\Mikko Innanen, Jaak Sooaar and Han Bennink - Spring Odyssey (2006)\13. Soon.flac
Extracted successfully
Conclusion: this track is CDDA with probability 100%
Tempfile successfully deleted.
14 -===- L:\rutracker.org_Audio CD\#_023_Mikko Innanen, Jaak Sooaar and Han Bennink - Spring Odyssey (2006)\Mikko Innanen, Jaak Sooaar and Han Bennink - Spring Odyssey (2006)\14. Reality.flac
Extracted successfully
Conclusion: this track is CDDA with probability 100%
Tempfile successfully deleted.
Finished at: среда, 29. 02. 2012. - 12:58.29 (operation time: 0:06.50)
... релизы с участием HAN BENNINK на трекере ...
По всем вопросам пишите личное сообщение пользователю M0p94ok.
22:23
193
Нет комментариев. Ваш будет первым!