Поиск

(Avant-Garde Jazz) Massacre - Lonely Heart - 2007, APE (image + .cue), lossless

(Avant-Garde Jazz) Massacre - Lonely Heart - 2007, APE (image + .cue), lossless
Треклист:
Massacre - Lonely Heart
Страна: U.S.A.
Жанр: Avant-Garde Jazz
Год выпуска: 2007
Формат: APE (image + .cue)
Битрейт аудио: lossless
Продолжительность: 58 minutes
Трэклист:
01 Send 19:49
02 Step 5:11
03 In 7:40
04 Gracias A La Vida 18:31
05 Return 6:53
Доп. информация: Bass [Electric]: Bill Laswell
Compiled By [Assembled]: Peter Hardt
Drums, Melodica: Charles Hayward
Executive Producer: John Zorn
Executive Producer [Associate]: Kazunori Sugiyama
Guitar [Electric]: Fred Frith
Mastered By: Scott Hull (2)
Mastered By [Pre-mastering]: Myles Boisen
Producer: Fred Frith
Recorded By, Mixed By [Live]: Oz Fritz
Очень бодрый концерт.
Отчёт EAC:
 
скрытый текст
Exact Audio Copy V0.99 prebeta 3 from 28. July 2007
Отчёт EAC об извлечении, выполненном 8. апреля 2008, 22:33
Massacre / Lonely Heart
Дисковод: _NEC CD-RW NR-9300A Adapter: 2 ID: 0
Режим чтения : Достоверность
Использование точного потока : Да
Отключение кэша аудио : Да
Использование указателей C2 : Нет
Коррекция смещения при чтении : 685
Способность читать области Lead-in и Lead-out : Нет
Заполнение пропущенных сэмплов тишиной : Да
Удаление блоков с тишиной в начале и конце : Нет
При вычислениях CRC использовались нулевые сэмплы : Да
Интерфейс : Встроенный Win32-интерфейс для Win NT/2000
Выходной формат : Внутренние WAV-операции
Формат сэмплов : 44.100 Гц; 16 бит; стерео
TOC извлечённого CD
Трек | Старт | Длительность | Начальный сектор | Конечный сектор
---------------------------------------------------------------------
1 | 0:00.00 | 19:48.64 | 0 | 89163
2 | 19:48.64 | 5:10.39 | 89164 | 112452
3 | 24:59.28 | 7:40.16 | 112453 | 146968
4 | 32:39.44 | 18:31.27 | 146969 | 230320
5 | 51:10.71 | 6:52.65 | 230321 | 261285
Характеристики диапазона извлечения и сообщения об ошибках
Выбранный диапазон
Имя файла F:\m\music\1\Massacre - Lonely Heart\Massacre - Lonely Heart.wav
Пиковый уровень 97.7 %
Качество диапазона 100.0 %
CRC копии 99CFEE84
Копирование... OK
Ошибок не произошло
Конец отчёта
Еще интересной музыки:
По всем вопросам пишите личное сообщение пользователю M0p94ok.
23:25
183
Нет комментариев. Ваш будет первым!