Поиск

(Avant-Garde Jazz) Actis Band (Carlo Actis Dato) - On Tour • Live 2004 (2CD) - {Splasc(h)} - 2005, FLAC (image + .cue), lossless

(Avant-Garde Jazz) Actis Band (Carlo Actis Dato) - On Tour • Live 2004 (2CD) - {Splasc(h)} - 2005, FLAC (image + .cue), lossless
Треклист:
Actis Band
On Tour • Live 2004


Страна: Italy (Splasc(h) CD H541/2.2)
Жанр: Avant-Garde Jazz
Год выпуска: 2005
Формат: FLAC (image + .cue)
Битрейт аудио: lossless
Продолжительность: 52:38 + 55:18
Disc 1:
1. Takayama Rap 8:16
2. Nefertari 8:42
3. Dulcinea 9:55
4. East Mambo 9:39
5. Los Tiburones 8:15
6. Dead Chicken for Breakfast 7:48
Disc 2:
1. Viva Zapata 8:03
2. Vulcano Boro 8:39
3. Nairobi Night 8:16
4. Rojo 8:21
5. Son para el Che 7:18
6. Porci Padani 6:50
7. Polpi d'Otranto 7:48
Carlo Actis Dato: tenor & baritone saxes, bass clarinet
Massimo Rossi: soprano & alto saxes
Karsten Lipp: guitar
Federico Marchesano: bass
Dario Bruna: drums
All compositions by Carlo Actis Dato are published by Senz'h Edizioni Musicali - SIAE
Recorded live on March 12, 2004 in "Ferme Asile" - Sion - Switzerland by Hubert Sewer
2005, Splasc(h) Records
CD H541/2.2
http://www.splaschrecords.com
http://www.actisdato.it/English/actisdato.htm
 
CD1: EAC extraction logfile from 30. March 2008, 14:25
Exact Audio Copy V0.99 prebeta 4 from 23. January 2008
EAC extraction logfile from 30. March 2008, 14:25
Actis Band / On Tour - Live 2004 CD1
Used drive : PLEXTOR DVDR PX-760A Adapter: 4 ID: 0
Read mode : Secure
Utilize accurate stream : Yes
Defeat audio cache : Yes
Make use of C2 pointers : No
Read offset correction : 30
Overread into Lead-In and Lead-Out : Yes
Fill up missing offset samples with silence : Yes
Delete leading and trailing silent blocks : No
Null samples used in CRC calculations : No
Used interface : Native Win32 interface for Win NT & 2000
Used output format : Internal WAV Routines
Sample format : 44.100 Hz; 16 Bit; Stereo
TOC of the extracted CD
Track | Start | Length | Start sector | End sector
---------------------------------------------------------
1 | 0:00.00 | 8:16.38 | 0 | 37237
2 | 8:16.38 | 8:42.19 | 37238 | 76406
3 | 16:58.57 | 9:55.64 | 76407 | 121095
4 | 26:54.46 | 9:39.00 | 121096 | 164520
5 | 36:33.46 | 8:15.57 | 164521 | 201702
6 | 44:49.28 | 7:48.11 | 201703 | 236813
Range status and errors
Selected range
Filename H:\!Audio\Actis Band - On Tour - Live 2004 CD1.wav
Peak level 93.3 %
Range quality 100.0 %
Test CRC 790CE82C
Copy CRC 790CE82C
Copy OK
No errors occurred
AccurateRip summary
Track 1 not present in database
Track 2 not present in database
Track 3 not present in database
Track 4 not present in database
Track 5 not present in database
Track 6 not present in database
None of the tracks are present in the AccurateRip database
End of status report
 
CD2: EAC extraction logfile from 30. March 2008, 15:11
Exact Audio Copy V0.99 prebeta 4 from 23. January 2008
EAC extraction logfile from 30. March 2008, 15:11
Actis Band / On Tour - Live 2004 CD2
Used drive : PLEXTOR DVDR PX-760A Adapter: 4 ID: 0
Read mode : Secure
Utilize accurate stream : Yes
Defeat audio cache : Yes
Make use of C2 pointers : No
Read offset correction : 30
Overread into Lead-In and Lead-Out : Yes
Fill up missing offset samples with silence : Yes
Delete leading and trailing silent blocks : No
Null samples used in CRC calculations : No
Used interface : Native Win32 interface for Win NT & 2000
Used output format : Internal WAV Routines
Sample format : 44.100 Hz; 16 Bit; Stereo
TOC of the extracted CD
Track | Start | Length | Start sector | End sector
---------------------------------------------------------
1 | 0:00.00 | 8:03.12 | 0 | 36236
2 | 8:03.12 | 8:39.18 | 36237 | 75179
3 | 16:42.30 | 8:16.08 | 75180 | 112387
4 | 24:58.38 | 8:21.72 | 112388 | 150034
5 | 33:20.35 | 7:18.48 | 150035 | 182932
6 | 40:39.08 | 6:50.25 | 182933 | 213707
7 | 47:29.33 | 7:48.12 | 213708 | 248819
Range status and errors
Selected range
Filename H:\!Audio\Actis Band - On Tour - Live 2004 CD2.wav
Peak level 96.6 %
Range quality 100.0 %
Test CRC F3E5D79C
Copy CRC F3E5D79C
Copy OK
No errors occurred
AccurateRip summary
Track 1 not present in database
Track 2 not present in database
Track 3 not present in database
Track 4 not present in database
Track 5 not present in database
Track 6 not present in database
Track 7 not present in database
None of the tracks are present in the AccurateRip database
End of status report
Собственный рип с оригинальных дисков.
В комплекте полный набор сканов PNG/300dpi.
Приватный:
Нет (DHT включён)
Размер:
775.07 Мб (812,716,448 байт) » файлов: 13
Участники:
0 раздают, 0 качают (0 участников всего)
Внешние участники:
2 раздают, 1 качают (3 участников всего) [ Обновить ]
Есть вопросы - пишите личное сообщение пользователю M0p94ok.
00:25
53
Нет комментариев. Ваш будет первым!