Вы используете незарегистрированную версию компонента "Вкладки"!

Поиск

(Avant-garde jazz) Kazutoki Umezu - Eclecticism Live (The Jazz Festival Saalfelden)(bootleg) - 1995, WAVPack (image+.cue), lossless

Треклист:
Kazutoki Umezu - Eclecticism Live (The Jazz Festival Saalfelden)(bootleg)
Жанр: Avant-garde jazz
Год выпуска диска: 1995
Аудио кодек: WAVPack
Тип рипа: image+.cue
Битрейт аудио: lossless
Продолжительность: 70:24
Трэклист:
01. Rubber Band 11:49
02. Juicy Mami 07:44
03. Yakitori 11:00
04. Lulu & Roro 09:31
05. Stable Seven 17:03
06. Junk 04:45
07. Western Picaro 08:29
Доп. информация: С целью дальнейшего ознакомления широких масс с творчеством Казутоки Умецу представляю живое выступление мастера с группой единомышленников того периода, когда Казу батрачил на "Вязальной фабрике им. товарища Зорна" :-)... а именно "Эклектицизм - Tур"
Локация:Jazz Festival Saalfelden Austria 25. Aug. 95
Состав:
Kazutoki Umezu reeds
Marc Ribot guitar
Curtis Fowlkes trombone
Brad Jones bass
Joe Trump drums
Samm Bennett percussion
Музыкальный материал: отличный (от студийного "Эклектицизма" отличается отсутствием 2 композиций и наличием "визитной карточки" Казу "Rubber Band", все композиции в 2 раза длинней)
Качество: Среднее (зальный шум )
Источник: CD-R от aawolff'a из Германии
 
Отчёт EAC
Exact Audio Copy V0.99 prebeta 4 from 23. January 2008
EAC extraction logfile from 7. October 2009, 8:12
Kazutoki Umezu / Eclecticism Live (The Jazz Festival Saalfelden)
Used drive : Optiarc DVD RW AD-7200A Adapter: 0 ID: 1
Read mode : Secure
Utilize accurate stream : Yes
Defeat audio cache : Yes
Make use of C2 pointers : No
Read offset correction : 48
Overread into Lead-In and Lead-Out : No
Fill up missing offset samples with silence : Yes
Delete leading and trailing silent blocks : No
Null samples used in CRC calculations : Yes
Used interface : Installed external ASPI interface
Used output format : Internal WAV Routines
Sample format : 44.100 Hz; 16 Bit; Stereo
TOC of the extracted CD
Track | Start | Length | Start sector | End sector
---------------------------------------------------------
1 | 0:00.00 | 11:49.21 | 0 | 53195
2 | 11:49.21 | 7:44.40 | 53196 | 88035
3 | 19:33.61 | 11:00.04 | 88036 | 137539
4 | 30:33.65 | 9:31.49 | 137540 | 180413
5 | 40:05.39 | 17:03.27 | 180414 | 257165
6 | 57:08.66 | 4:45.49 | 257166 | 278589
7 | 61:54.40 | 8:29.12 | 278590 | 316776
Range status and errors
Selected range
Filename H:\WORK\Kazutoki Umezu - Eclecticism Live (The Jazz Festival Saalfelden).wav
Peak level 100.0 %
Copy CRC BC821AAC
Copy OK
No errors occurred
End of status report
По всем вопросам пишите личное сообщение пользователю M0p94ok.
15:13
209
Нет комментариев. Ваш будет первым!