Вы используете незарегистрированную версию компонента "Вкладки"!

Поиск

(Avant Garde Jazz) John Lindberg Revolving Ensemble - "Relative Reliability" - 1988, FLAC (tracks+.cue), lossless

(Avant Garde Jazz) John Lindberg Revolving Ensemble - "Relative Reliability" - 1988, FLAC (tracks+.cue), lossless
Треклист:
John Lindberg Revolving Ensemble - "Relative Reliability"
Жанр: Avant Garde Jazz
Страна-производитель диска: Germany
Год издания диска: 1988
Издатель (лейбл): West Wind
Номер по каталогу: 014
Аудиокодек: FLAC (*.flac)
Тип рипа: tracks+.cue
Битрейт аудио: lossless
Продолжительность: 42:22
Источник (релизер): собственный рип с оригинального диска
Наличие сканов в содержимом раздачи: да
Треклист:
01. Sparkle From Half-Pint
02. Tones Of Mourning
03. Common Goal
04. One For Jerome
05. Cisse
06. Flight
07. Arenas
08. Multiple Reasons
 
Лог создания рипа
Exact Audio Copy V0.99 prebeta 5 from 4. May 2009
EAC extraction logfile from 17. July 2011, 11:15
John Lindberg Revolving Ensemble / Relative Reliability
Used drive : TSSTcorpCDDVDW SH-S222A Adapter: 1 ID: 0
Read mode : Secure
Utilize accurate stream : Yes
Defeat audio cache : Yes
Make use of C2 pointers : No
Read offset correction : 6
Overread into Lead-In and Lead-Out : No
Fill up missing offset samples with silence : Yes
Delete leading and trailing silent blocks : No
Null samples used in CRC calculations : Yes
Used interface : Installed external ASPI interface
Gap handling : Appended to previous track
Used output format : User Defined Encoder
Selected bitrate : 768 kBit/s
Quality : High
Add ID3 tag : No
Command line compressor : C:\Tool\Compress\FLAC\flac.exe
Additional command line options : -8 -V -T "ARTIST=%a" -T "TITLE=%t" -T "ALBUM=%g" -T "DATE=%y" -T "TRACKNUMBER=%n" -T "TOTALTRACKS=%x" -T "GENRE=%m" -T "ALBUM ARTIST=%v" -T "COMMENT=EAC V0.99 prebeta 5, Secure Mode, Test & Copy, AccurateRip, FLAC -8" %s
TOC of the extracted CD
Track | Start | Length | Start sector | End sector
---------------------------------------------------------
1 | 0:00.00 | 4:35.52 | 0 | 20676
2 | 4:35.52 | 6:36.58 | 20677 | 50434
3 | 11:12.35 | 4:34.10 | 50435 | 70994
4 | 15:46.45 | 4:03.67 | 70995 | 89286
5 | 19:50.37 | 6:05.33 | 89287 | 116694
6 | 25:55.70 | 7:00.05 | 116695 | 148199
7 | 32:56.00 | 3:56.00 | 148200 | 165899
8 | 36:52.00 | 5:33.02 | 165900 | 190876
Track 1
Filename C:\! UPLOAD\John Lindberg Revolving Ensemble - Relative Reliability (1988) [FLAC] {WestWind}\01 - Sparkle From Half - Pint.wav
Pre-gap length 0:00:02.00
Peak level 100.0 %
Track quality 100.0 %
Test CRC 5ACDADFD
Copy CRC 5ACDADFD
Track not present in AccurateRip database
Copy OK
Track 2
Filename C:\! UPLOAD\John Lindberg Revolving Ensemble - Relative Reliability (1988) [FLAC] {WestWind}\02 - Tones Of Mourning.wav
Pre-gap length 0:00:04.00
Peak level 85.2 %
Track quality 100.0 %
Test CRC CAB44DF6
Copy CRC CAB44DF6
Track not present in AccurateRip database
Copy OK
Track 3
Filename C:\! UPLOAD\John Lindberg Revolving Ensemble - Relative Reliability (1988) [FLAC] {WestWind}\03 - Common Goal.wav
Pre-gap length 0:00:04.00
Peak level 66.6 %
Track quality 100.0 %
Test CRC C93BDC43
Copy CRC C93BDC43
Track not present in AccurateRip database
Copy OK
Track 4
Filename C:\! UPLOAD\John Lindberg Revolving Ensemble - Relative Reliability (1988) [FLAC] {WestWind}\04 - One For Jerome.wav
Pre-gap length 0:00:04.00
Peak level 91.2 %
Track quality 100.0 %
Test CRC 1B839266
Copy CRC 1B839266
Track not present in AccurateRip database
Copy OK
Track 5
Filename C:\! UPLOAD\John Lindberg Revolving Ensemble - Relative Reliability (1988) [FLAC] {WestWind}\05 - Cisse.wav
Pre-gap length 0:00:05.66
Peak level 58.7 %
Track quality 100.0 %
Test CRC C456B9BB
Copy CRC C456B9BB
Track not present in AccurateRip database
Copy OK
Track 6
Filename C:\! UPLOAD\John Lindberg Revolving Ensemble - Relative Reliability (1988) [FLAC] {WestWind}\06 - Flight.wav
Pre-gap length 0:00:04.00
Peak level 100.0 %
Track quality 99.9 %
Test CRC C2579806
Copy CRC C2579806
Track not present in AccurateRip database
Copy OK
Track 7
Filename C:\! UPLOAD\John Lindberg Revolving Ensemble - Relative Reliability (1988) [FLAC] {WestWind}\07 - Arenas.wav
Pre-gap length 0:00:04.00
Peak level 80.3 %
Track quality 100.0 %
Test CRC E3AE26D2
Copy CRC E3AE26D2
Track not present in AccurateRip database
Copy OK
Track 8
Filename C:\! UPLOAD\John Lindberg Revolving Ensemble - Relative Reliability (1988) [FLAC] {WestWind}\08 - Multiple Reasons.wav
Pre-gap length 0:00:04.00
Peak level 95.4 %
Track quality 100.0 %
Test CRC 83FD1736
Copy CRC 83FD1736
Track not present in AccurateRip database
Copy OK
None of the tracks are present in the AccurateRip database
No errors occurred
End of status report
 
Содержание индексной карты (.CUE)
REM GENRE Jazz
REM DATE 1988
REM DISCID 7909F108
REM COMMENT "ExactAudioCopy v0.99pb5"
PERFORMER "John Lindberg Revolving Ensemble"
TITLE "Relative Reliability"
FILE "01 - Sparkle From Half - Pint.wav" WAVE
TRACK 01 AUDIO
TITLE "Sparkle From Half - Pint"
PERFORMER "John Lindberg Revolving Ensemble"
INDEX 01 00:00:00
TRACK 02 AUDIO
TITLE "Tones Of Mourning"
PERFORMER "John Lindberg Revolving Ensemble"
INDEX 00 04:31:52
FILE "02 - Tones Of Mourning.wav" WAVE
INDEX 01 00:00:00
TRACK 03 AUDIO
TITLE "Common Goal"
PERFORMER "John Lindberg Revolving Ensemble"
INDEX 00 06:32:58
FILE "03 - Common Goal.wav" WAVE
INDEX 01 00:00:00
TRACK 04 AUDIO
TITLE "One For Jerome"
PERFORMER "John Lindberg Revolving Ensemble"
INDEX 00 04:30:10
FILE "04 - One For Jerome.wav" WAVE
INDEX 01 00:00:00
TRACK 05 AUDIO
TITLE "Cisse"
PERFORMER "John Lindberg Revolving Ensemble"
INDEX 00 03:58:17
FILE "05 - Cisse.wav" WAVE
INDEX 01 00:00:00
TRACK 06 AUDIO
TITLE "Flight"
PERFORMER "John Lindberg Revolving Ensemble"
INDEX 00 06:01:33
FILE "06 - Flight.wav" WAVE
INDEX 01 00:00:00
TRACK 07 AUDIO
TITLE "Arenas"
PERFORMER "John Lindberg Revolving Ensemble"
INDEX 00 06:56:05
FILE "07 - Arenas.wav" WAVE
INDEX 01 00:00:00
TRACK 08 AUDIO
TITLE "Multiple Reasons"
PERFORMER "John Lindberg Revolving Ensemble"
INDEX 00 03:52:00
FILE "08 - Multiple Reasons.wav" WAVE
INDEX 01 00:00:00
Доп. информация:
Recorded at Splash Studios, New York, N.Y.
 
Состав
John Lindberg - bass
Thurman Barker - drums, marimba
Marty Ehrlich - alto saxophone, flute, bass clarinet, clarinet
По всем вопросам пишите личное сообщение пользователю M0p94ok.
15:02
201
Нет комментариев. Ваш будет первым!