Поиск

(Avant Garde Jazz) John Lindberg - Albert Mangelsdorff - Eric Watson - Dodging Bullets - 1992, FLAC (tracks+.cue), lossless

Треклист:
John Lindberg - Albert Mangelsdorff - Eric Watson - Dodging Bullets
Жанр: Avant Garde Jazz
Страна-производитель диска: Italy
Год издания диска: 1992
Издатель (лейбл): Black Saint Records
Номер по каталогу: BSR 120 108-2
Аудиокодек: FLAC (*.flac)
Тип рипа: tracks+.cue
Битрейт аудио: lossless
Продолжительность: 51:10
Источник (релизер): собственный рип с оригинального диска
Наличие сканов в содержимом раздачи: да
Треклист:
1. Horn Is a Lady
2. Dodging Bullets
3. Four Fathers
4. Sticks and Bones
5. Shuffle Up
6. Ceilings (trio version)
7. Hardware
8. Fersengeld
9. Ceilings (piano solo version)
 
Лог создания рипа
Exact Audio Copy V0.99 prebeta 5 from 4. May 2009
EAC extraction logfile from 16. July 2011, 19:39
Lindberg-Mangelsdorff-Watson / Dodging Bullets
Used drive : TSSTcorpCDDVDW SH-S222A Adapter: 1 ID: 0
Read mode : Secure
Utilize accurate stream : Yes
Defeat audio cache : Yes
Make use of C2 pointers : No
Read offset correction : 6
Overread into Lead-In and Lead-Out : No
Fill up missing offset samples with silence : Yes
Delete leading and trailing silent blocks : No
Null samples used in CRC calculations : Yes
Used interface : Installed external ASPI interface
Gap handling : Appended to previous track
Used output format : User Defined Encoder
Selected bitrate : 768 kBit/s
Quality : High
Add ID3 tag : No
Command line compressor : C:\Tool\Compress\FLAC\flac.exe
Additional command line options : -8 -V -T "ARTIST=%a" -T "TITLE=%t" -T "ALBUM=%g" -T "DATE=%y" -T "TRACKNUMBER=%n" -T "TOTALTRACKS=%x" -T "GENRE=%m" -T "ALBUM ARTIST=%v" -T "COMMENT=EAC V0.99 prebeta 5, Secure Mode, Test & Copy, AccurateRip, FLAC -8" %s
TOC of the extracted CD
Track | Start | Length | Start sector | End sector
---------------------------------------------------------
1 | 0:00.33 | 5:06.00 | 33 | 22982
2 | 5:06.33 | 7:55.50 | 22983 | 58657
3 | 13:02.08 | 8:42.25 | 58658 | 97832
4 | 21:44.33 | 2:49.50 | 97833 | 110557
5 | 24:34.08 | 4:42.00 | 110558 | 131707
6 | 29:16.08 | 3:03.25 | 131708 | 145457
7 | 32:19.33 | 7:11.00 | 145458 | 177782
8 | 39:30.33 | 7:50.00 | 177783 | 213032
9 | 47:20.33 | 3:53.00 | 213033 | 230507
Track 1
Filename C:\! UPLOAD\Lindberg-Mangelsdorff-Watson - Dodging Bullets (1992) [FLAC] {Black Saint}\01 - The Horn is a Lady.wav
Pre-gap length 0:00:02.44
Peak level 81.6 %
Track quality 100.0 %
Test CRC F5A1FB2C
Copy CRC F5A1FB2C
Accurately ripped (confidence 2) [998F5B1E]
Copy OK
Track 2
Filename C:\! UPLOAD\Lindberg-Mangelsdorff-Watson - Dodging Bullets (1992) [FLAC] {Black Saint}\02 - Dodging Bullets.wav
Peak level 100.0 %
Track quality 100.0 %
Test CRC 8EF9325D
Copy CRC 8EF9325D
Accurately ripped (confidence 2) [46D9F3A3]
Copy OK
Track 3
Filename C:\! UPLOAD\Lindberg-Mangelsdorff-Watson - Dodging Bullets (1992) [FLAC] {Black Saint}\03 - Four Fathers.wav
Peak level 95.5 %
Track quality 99.9 %
Test CRC 6C16217E
Copy CRC 6C16217E
Accurately ripped (confidence 2) [702F841D]
Copy OK
Track 4
Filename C:\! UPLOAD\Lindberg-Mangelsdorff-Watson - Dodging Bullets (1992) [FLAC] {Black Saint}\04 - Sticks and Bones.wav
Peak level 46.6 %
Track quality 99.9 %
Test CRC 1CB3E034
Copy CRC 1CB3E034
Accurately ripped (confidence 2) [277B157F]
Copy OK
Track 5
Filename C:\! UPLOAD\Lindberg-Mangelsdorff-Watson - Dodging Bullets (1992) [FLAC] {Black Saint}\05 - Shuffle Up.wav
Peak level 93.3 %
Track quality 100.0 %
Test CRC FB6242B1
Copy CRC FB6242B1
Track not present in AccurateRip database
Copy OK
Track 6
Filename C:\! UPLOAD\Lindberg-Mangelsdorff-Watson - Dodging Bullets (1992) [FLAC] {Black Saint}\06 - Ceilings (Trio version).wav
Peak level 95.2 %
Track quality 100.0 %
Test CRC 43D7CD2A
Copy CRC 43D7CD2A
Track not present in AccurateRip database
Copy OK
Track 7
Filename C:\! UPLOAD\Lindberg-Mangelsdorff-Watson - Dodging Bullets (1992) [FLAC] {Black Saint}\07 - Hardware.wav
Peak level 95.5 %
Track quality 99.9 %
Test CRC 72CA37F1
Copy CRC 72CA37F1
Track not present in AccurateRip database
Copy OK
Track 8
Filename C:\! UPLOAD\Lindberg-Mangelsdorff-Watson - Dodging Bullets (1992) [FLAC] {Black Saint}\08 - Fersengeld.wav
Peak level 80.3 %
Track quality 100.0 %
Test CRC CF44C308
Copy CRC CF44C308
Track not present in AccurateRip database
Copy OK
Track 9
Filename C:\! UPLOAD\Lindberg-Mangelsdorff-Watson - Dodging Bullets (1992) [FLAC] {Black Saint}\09 - Ceilings (Piano Solo version).wav
Peak level 61.5 %
Track quality 100.0 %
Test CRC CB3C40DD
Copy CRC CB3C40DD
Accurately ripped (confidence 2) [E524DD0E]
Copy OK
5 track(s) accurately ripped
4 track(s) not present in the AccurateRip database
Some tracks could not be verified as accurate
No errors occurred
End of status report
 
Содержание индексной карты (.CUE)
REM GENRE Jazz
REM DATE 1992
REM DISCID 7E0C0109
REM COMMENT "ExactAudioCopy v0.99pb5"
PERFORMER "Lindberg-Mangelsdorff-Watson"
TITLE "Dodging Bullets"
FILE "01 - The Horn is a Lady.wav" WAVE
TRACK 01 AUDIO
TITLE "The Horn is a Lady"
PERFORMER "Lindberg-Mangelsdorff-Watson"
PREGAP 00:00:33
INDEX 01 00:00:00
FILE "02 - Dodging Bullets.wav" WAVE
TRACK 02 AUDIO
TITLE "Dodging Bullets"
PERFORMER "Lindberg-Mangelsdorff-Watson"
INDEX 01 00:00:00
FILE "03 - Four Fathers.wav" WAVE
TRACK 03 AUDIO
TITLE "Four Fathers"
PERFORMER "Lindberg-Mangelsdorff-Watson"
INDEX 01 00:00:00
FILE "04 - Sticks and Bones.wav" WAVE
TRACK 04 AUDIO
TITLE "Sticks and Bones"
PERFORMER "Lindberg-Mangelsdorff-Watson"
INDEX 01 00:00:00
FILE "05 - Shuffle Up.wav" WAVE
TRACK 05 AUDIO
TITLE "Shuffle Up"
PERFORMER "Lindberg-Mangelsdorff-Watson"
INDEX 01 00:00:00
FILE "06 - Ceilings (Trio version).wav" WAVE
TRACK 06 AUDIO
TITLE "Ceilings (Trio version)"
PERFORMER "Lindberg-Mangelsdorff-Watson"
INDEX 01 00:00:00
FILE "07 - Hardware.wav" WAVE
TRACK 07 AUDIO
TITLE "Hardware"
PERFORMER "Lindberg-Mangelsdorff-Watson"
INDEX 01 00:00:00
FILE "08 - Fersengeld.wav" WAVE
TRACK 08 AUDIO
TITLE "Fersengeld"
PERFORMER "Lindberg-Mangelsdorff-Watson"
INDEX 01 00:00:00
FILE "09 - Ceilings (Piano Solo version).wav" WAVE
TRACK 09 AUDIO
TITLE "Ceilings (Piano Solo version)"
PERFORMER "Lindberg-Mangelsdorff-Watson"
INDEX 01 00:00:00
Доп. информация:
Recorded on June 8th and 9th, 1992 at Studio 2 Hessischer Rundfunk, Frankfurt am Main
 
Об альбоме (сборнике)
“…wonderfully open and uncluttered...a fruitful synthesis between Lindberg's more avant-garde approach and jazz tradition… ” ~~ The Penguin Guide to Jazz on CD - Eighth Edition
 
Состав
John Lindberg - bass
Albert Mangelsdorff - trombone
Eric Watson - piano
По всем вопросам пишите личное сообщение пользователю M0p94ok.
15:03
297
Нет комментариев. Ваш будет первым!