Вы используете незарегистрированную версию компонента "Вкладки"!

Поиск

(Avant-Garde Jazz, Improvisation) Joe Morris - Camera - 2010, FLAC (tracks+.cue), lossless

Треклист:
Joe Morris
CAMERA

Жанр: Avant-Garde Jazz, Improvisation
Страна-производитель диска: USA
Год издания диска: 2010
Издатель (лейбл): ESP
Номер по каталогу: 4063
Аудио кодек: FLAC (*.flac)
Тип рипа: tracks+.cue
Битрейт аудио: lossless
Продолжительность: 50:21
Наличие сканов в содержимом раздачи: нет
Источник (релизер): net, thanks Gnom5

Треклист:
1. Person in a Place
2. Street Scene
3. Angle of Incidence
4. Evocative Shadow
5. Patterns on Faces
6. Reflected Object
Исполнители:
Joe Morris (guitar)
Katt Hernandez (violin)
Junko Fujiwara Simons (cello)
Luther Gray (drums)
 
Лог XLD
X Lossless Decoder version 20100918 (122.1)
XLD extraction logfile from 2011-02-06 21:43:21 -0500
Joe Morris / Camera
Used drive : MATSHITA DVD-R UJ-898 (revision HC10)
Use cdparanoia mode : YES (CDParanoia III 10.2 engine)
Disable audio cache : OK for the drive with cache less than 2750KB
Make use of C2 pointers : NO
Read offset correction : 102
Max retry count : 100
Gap status : Analyzed, Appended
TOC of the extracted CD
Track | Start | Length | Start sector | End sector
---------------------------------------------------------
1 | 00:00:00 | 09:37:56 | 0 | 43330
2 | 09:37:56 | 07:28:37 | 43331 | 76967
3 | 17:06:18 | 06:43:32 | 76968 | 107224
4 | 23:49:50 | 08:04:24 | 107225 | 143548
5 | 31:53:74 | 08:47:11 | 143549 | 183084
6 | 40:41:10 | 09:41:04 | 183085 | 226663
All Tracks
Album gain : -5.60 dB
Peak : 0.891449
Track 01
Filename : /Desktop/Joe Morris - Camera [FLAC]/01 - Person in a Place.flac
Pre-gap length : 00:02:00
Track gain : -5.32 dB
Peak : 0.817535
CRC32 hash (test run) : 85379ED8
CRC32 hash : 85379ED8
CRC32 hash (skip zero) : 1D323E40
AccurateRip signature : 32DF3B82
->Track not present in AccurateRip database.
Statistics
Read error : 0
Skipped (treated as error) : 0
Edge jitter error (maybe fixed) : 0
Atom jitter error (maybe fixed) : 0
Drift error (maybe fixed) : 0
Dropped bytes error (maybe fixed) : 0
Duplicated bytes error (maybe fixed) : 0
Inconsistency in error sectors : 0
Track 02
Filename : /Desktop/Joe Morris - Camera [FLAC]/02 - Street Scene.flac
Pre-gap length : 00:01:00
Track gain : -3.42 dB
Peak : 0.891449
CRC32 hash (test run) : CE4F2233
CRC32 hash : CE4F2233
CRC32 hash (skip zero) : EE844033
AccurateRip signature : 1B2FDF3C
->Track not present in AccurateRip database.
Statistics
Read error : 0
Skipped (treated as error) : 0
Edge jitter error (maybe fixed) : 0
Atom jitter error (maybe fixed) : 0
Drift error (maybe fixed) : 0
Dropped bytes error (maybe fixed) : 0
Duplicated bytes error (maybe fixed) : 0
Inconsistency in error sectors : 0
Track 03
Filename : /Desktop/Joe Morris - Camera [FLAC]/03 - Angle of Incidence.flac
Pre-gap length : 00:01:00
Track gain : -5.39 dB
Peak : 0.891449
CRC32 hash (test run) : 40FDADDD
CRC32 hash : 40FDADDD
CRC32 hash (skip zero) : B350204C
AccurateRip signature : 057574EA
->Track not present in AccurateRip database.
Statistics
Read error : 0
Skipped (treated as error) : 0
Edge jitter error (maybe fixed) : 0
Atom jitter error (maybe fixed) : 0
Drift error (maybe fixed) : 0
Dropped bytes error (maybe fixed) : 0
Duplicated bytes error (maybe fixed) : 0
Inconsistency in error sectors : 0
Track 04
Filename : /Desktop/Joe Morris - Camera [FLAC]/04 - Evocative Shadow.flac
Pre-gap length : 00:01:00
Track gain : -4.43 dB
Peak : 0.891449
CRC32 hash (test run) : 8110D912
CRC32 hash : 8110D912
CRC32 hash (skip zero) : A6483B27
AccurateRip signature : 0F68F0EF
->Track not present in AccurateRip database.
Statistics
Read error : 0
Skipped (treated as error) : 0
Edge jitter error (maybe fixed) : 0
Atom jitter error (maybe fixed) : 0
Drift error (maybe fixed) : 0
Dropped bytes error (maybe fixed) : 0
Duplicated bytes error (maybe fixed) : 0
Inconsistency in error sectors : 0
Track 05
Filename : /Desktop/Joe Morris - Camera [FLAC]/05 - Patterns on Faces.flac
Pre-gap length : 00:01:00
Track gain : -6.60 dB
Peak : 0.891113
CRC32 hash (test run) : DC7A9B6C
CRC32 hash : DC7A9B6C
CRC32 hash (skip zero) : C8B362D3
AccurateRip signature : 0A776622
->Track not present in AccurateRip database.
Statistics
Read error : 0
Skipped (treated as error) : 0
Edge jitter error (maybe fixed) : 0
Atom jitter error (maybe fixed) : 0
Drift error (maybe fixed) : 0
Dropped bytes error (maybe fixed) : 0
Duplicated bytes error (maybe fixed) : 0
Inconsistency in error sectors : 0
Track 06
Filename : /Desktop/Joe Morris - Camera [FLAC]/06 - Reflected Object.flac
Pre-gap length : 00:01:00
Track gain : -6.61 dB
Peak : 0.891113
CRC32 hash (test run) : 7BD79CCA
CRC32 hash : 7BD79CCA
CRC32 hash (skip zero) : 2514FB31
AccurateRip signature : 55428B42
->Track not present in AccurateRip database.
Statistics
Read error : 0
Skipped (treated as error) : 0
Edge jitter error (maybe fixed) : 0
Atom jitter error (maybe fixed) : 0
Drift error (maybe fixed) : 0
Dropped bytes error (maybe fixed) : 0
Duplicated bytes error (maybe fixed) : 0
Inconsistency in error sectors : 0
No errors occurred
End of status report
 
Содержание индексной карты (.CUE)
TITLE "Camera"
PERFORMER "Joe Morris"
REM GENRE "Jazz"
REM DATE 2010
REM DISCNUMBER 1
REM TOTALDISCS 1
REM DISCID 480BCE06
REM REPLAYGAIN_ALBUM_GAIN -5.60 dB
REM REPLAYGAIN_ALBUM_PEAK 0.891449
FILE "01 - Person in a Place.wav" WAVE
TRACK 01 AUDIO
TITLE "Person in a Place"
SONGWRITER "Joe Morris"
REM REPLAYGAIN_TRACK_GAIN -5.32 dB
REM REPLAYGAIN_TRACK_PEAK 0.817535
INDEX 01 00:00:00
TRACK 02 AUDIO
TITLE "Street Scene"
SONGWRITER "Joe Morris"
REM REPLAYGAIN_TRACK_GAIN -3.42 dB
REM REPLAYGAIN_TRACK_PEAK 0.891449
INDEX 00 09:36:56
FILE "02 - Street Scene.wav" WAVE
INDEX 01 00:00:00
TRACK 03 AUDIO
TITLE "Angle of Incidence"
SONGWRITER "Joe Morris"
REM REPLAYGAIN_TRACK_GAIN -5.39 dB
REM REPLAYGAIN_TRACK_PEAK 0.891449
INDEX 00 07:27:37
FILE "03 - Angle of Incidence.wav" WAVE
INDEX 01 00:00:00
TRACK 04 AUDIO
TITLE "Evocative Shadow"
SONGWRITER "Joe Morris"
REM REPLAYGAIN_TRACK_GAIN -4.43 dB
REM REPLAYGAIN_TRACK_PEAK 0.891449
INDEX 00 06:42:32
FILE "04 - Evocative Shadow.wav" WAVE
INDEX 01 00:00:00
TRACK 05 AUDIO
TITLE "Patterns on Faces"
SONGWRITER "Joe Morris"
REM REPLAYGAIN_TRACK_GAIN -6.60 dB
REM REPLAYGAIN_TRACK_PEAK 0.891113
INDEX 00 08:03:24
FILE "05 - Patterns on Faces.wav" WAVE
INDEX 01 00:00:00
TRACK 06 AUDIO
TITLE "Reflected Object"
SONGWRITER "Joe Morris"
REM REPLAYGAIN_TRACK_GAIN -6.61 dB
REM REPLAYGAIN_TRACK_PEAK 0.891113
INDEX 00 08:46:11
FILE "06 - Reflected Object.wav" WAVE
INDEX 01 00:00:00
 
Лог Audiochecker
AUDIOCHECKER v2.0 beta (build 457) - by Dester - opdester@freemail.hu
~~~~~~~~~~~~~~~~~~~~~~~~~~~~~~~~~~
Started at: воскресенье, 15. 05. 2011. - 23:50.19
6 files found
1 -===- C:\Users\пользователь\Videos\Joe Morris - Camera (2010)\01 - Person in a Place.flac
Extracted successfully
Conclusion: this track is CDDA with probability 100%
Tempfile successfully deleted.
2 -===- C:\Users\пользователь\Videos\Joe Morris - Camera (2010)\02 - Street Scene.flac
Extracted successfully
Conclusion: this track is CDDA with probability 100%
Tempfile successfully deleted.
3 -===- C:\Users\пользователь\Videos\Joe Morris - Camera (2010)\03 - Angle of Incidence.flac
Extracted successfully
Conclusion: this track is CDDA with probability 100%
Tempfile successfully deleted.
4 -===- C:\Users\пользователь\Videos\Joe Morris - Camera (2010)\04 - Evocative Shadow.flac
Extracted successfully
Conclusion: this track is CDDA with probability 100%
Tempfile successfully deleted.
5 -===- C:\Users\пользователь\Videos\Joe Morris - Camera (2010)\05 - Patterns on Faces.flac
Extracted successfully
Conclusion: this track is CDDA with probability 99%
Tempfile successfully deleted.
6 -===- C:\Users\пользователь\Videos\Joe Morris - Camera (2010)\06 - Reflected Object.flac
Extracted successfully
Conclusion: this track is CDDA with probability 100%
Tempfile successfully deleted.
Finished at: воскресенье, 15. 05. 2011. - 23:55.41 (operation time: 0:05.22)
 
Review
Some jazz improvisers prefer to have the same combination of instruments on most or all of their albums. There are acoustic pianists who only want to play in a traditional piano trio consisting of piano, bass, and drums; there are trumpeters who stick to a trumpet-sax-rhythm section format and want nothing more and nothing less. Other improvisers, however, like having different combinations of instruments on different albums, and Joe Morris is a perfect example. The avant-garde guitarist has led a wide variety of groups over the years; Camera finds him leading a quartet that employs Katt Hernandez on violin, Junko Fujiwara Simons on cello, and Luther Gray on drums. And having a quartet that is 75-percent string instruments and 25-percent drums gives Camera slight hints of chamber music at times, although "slight" is the operative word. Camera has a bit of Euro-classical appeal, but there is no overlooking the fact that this is edgy, free jazz. Morris thrives on the abstract, and he thrives on a stream of consciousness approach. But for all its intellect, Camera also has a great deal of passion. Morris' playing is quite focused on cerebral offerings such as "Evocative Shadow," "Patterns on Faces," "Angel of Incidence," and "Reflected Object." Saying that Morris' playing is both stream of consciousness and focused might sound like a contradiction, but it isn't. As outside and freeform as this 2010 session is, Morris obviously went into the studio knowing what he wanted, and he didn't want to throw things up against the wall randomly and see if perhaps they might stick. Camera has more of a sense of purpose than that, and while the end results fall short of essential, this is still a lively, stimulating effort from Morris.
 
Инфо
Джо Моррис - американский фри-джазовый гитарист. Родился в Нью-Хэйвене, шт. Коннектикут 13 сентября 1955 года. В 12 лет начал брать уроки игры на трубе, через два года перешел на гитару. Сначала под влиянием Джими Хендрикса играл блюз и рок; затем услышал запись "Om" Колтрейна, которая хоть и относится критиками к числу худших альбомов великого музыканта, однако именно она сподвигла Морриса к увлечению джазом. Самосовершенствование на этой стезе проходило через множество концертов, сыгранных вместе с другими студентами во время учебы Джо в Йельском университете. По окончании его в 1975 году Моррис обосновался в Бостоне, где много выступал, стал сооснователем Boston Improvisers Group (BIG), организовал свой лейбл Riti, на котором и записал первую пластинку "Wraparound" (1983). Съездил в европейское турне, а в 1981-ом начал длившееся несколько лет сотрудничество с пианистом Lowell Davidson. Также работал с Billy Bang, Andrew Cyrille, Peter Kowald, Joe McPhee, William Parker, Joe Maneri, Matthew Shipp, Ken Vandermark и др. С 1989 по 1993 Моррис руководил трио Sweatshop и квартетом Racket Club. Записал за свою карьеру более двух десятков альбомов на Hat Hut, Leo, Knitting Factory, AUM Fidelity. С 2000 года выступает также и в качестве контрабасиста. Кроме этого, читает лекции в New England Conservatory; дважды (в 1998 и 2002) номинировался на New York Jazz Awards в категории "Лучший гитарист". (оф. сайт)
Джо Моррис — один из самых бескомпромиссных авангардных джазовых гитаристов. Его стихия — тотальный фри-джаз, свободный от каких бы то ни было структур и внешних схем. Спонтанная коллективная импровизация, выражающая мгновенные смены эмоционального состояния, изменения потока мыслей, всплески бессознательного... чистая, “незапятнанная” мелодией и гармонией экспрессия.
Интересно, что сам Моррис не только не чурается слова “джаз”, которое так недолюбливают многие его коллеги — импровизаторы-авангардисты, но сам впрямую говорит, что играет именно джазовую музыку. По его мнению, современный джаз предполагает прежде всего сиюминутную оригинальность мышления. То есть джазовый музыкант, в отличие от прочих, в каждое мгновение посредством звуков передает слушателям свои собственные эмоции, не заложенные изначально композитором в конкретной пьесе, а именно те, которые исполнитель переживает сам.
Но здесь существуют разные пропорции: можно добавлять собственные чувства и ощущения к какой-то мелодической и гармонической структуре, импровизируя все же на основе чего-то изначально понятного большинству слушателей, а можно презреть это большинство и обращаться к тому незначительному меньшинству, которое не нуждается ни в какой смысловой “подпорке”. Так сказать, заняться чистой креативностью в надежде на то, что течение эмоций и ход мысли музыканта совпадает с кем-то из слушающих. В конце концов оно так и происходит, вот только совпадение это наблюдается нечасто. В итоге не должно удивлять то, что количество публики в клубе на концерте исполнителя вроде Джо Морриса порой бывает немногим больше количества музыкантов на сцене.
Критика потом ахает и охает, сетуя на то, что интереснейшие музыкальные идеи пропадают втуне, а глупый зритель валом валит слушать заигранную “до дыр” традицию. Зря ахает — люди эти не тупы и не равнодушны. Просто они хотят наслаждаться джазом, отдыхая, а для того, чтобы воспринять творчество Джо Морриса и иже с ним, нужно изрядно поработать мозгами. Да еще и подготовку иметь соответствующую. А это трудно. Поэтому авангард ВСЕГДА останется в меньшинстве. (Борис Аркадьев)
Any questions -> support@pro-jazz.com. По всем вопросам пишите -> support@pro-jazz.com
11:55
166
Нет комментариев. Ваш будет первым!