Вы используете незарегистрированную версию компонента "Вкладки"!

Поиск

(avant-garde jazz, free jazz, fusion) [CD] Jukka Perko Quartet - Portrait By Heart - 1989, FLAC (image+.cue), lossless

(avant-garde jazz, free jazz, fusion) [CD] Jukka Perko Quartet - Portrait By Heart - 1989, FLAC (image+.cue), lossless
Треклист:
Jukka Perko Quartet / Portrait By Heart
Жанр: avant-garde jazz, free jazz, fusion
Носитель: CD
Страна-производитель диска (релиза): Denmark
Год издания: 1989
Издатель (лейбл): Andania
Номер по каталогу: ANCD-3
Страна исполнителя (группы): Finland
Аудиокодек: FLAC (*.flac)
Тип рипа: image+.cue
Битрейт аудио: lossless
Продолжительность: 53:38
Источник (релизер): manyalbums
Наличие сканов в содержимом раздачи: да
Треклист:
01 Huuhkain (07:43)
02 Another Reflection (06:50)
03 Sadih (06:52)
04 Concrete Concrete (06:58)
05 Portrait By Heart (09:22)
06 Misty Swamp (04:21)
07 Red-Eyed-Rabbit (05:39)
08 .. And The Bite Escaped (05:54)
 
Лог создания рипа
Exact Audio Copy V1.0 beta 3 from 29. August 2011
EAC extraction logfile from 22. October 2013, 18:23
Jukka Perko / Portrait By Heart
Used drive : Optiarc DVD RW AD-5200A Adapter: 0 ID: 0
Read mode : Secure
Utilize accurate stream : Yes
Defeat audio cache : Yes
Make use of C2 pointers : No
Read offset correction : 48
Overread into Lead-In and Lead-Out : No
Fill up missing offset samples with silence : Yes
Delete leading and trailing silent blocks : No
Null samples used in CRC calculations : Yes
Used interface : Native Win32 interface for Win NT & 2000
Used output format : User Defined Encoder
Selected bitrate : 128 kBit/s
Quality : High
Add ID3 tag : No
Command line compressor : C:\Program Files\Exact Audio Copy\Flac\flac.exe
Additional command line options : -V -8 -T "Genre=%genre%" -T "Artist=%artist%" -T "Title=%title%" -T "Album=%albumtitle%" -T "Date=%year%" -T "Tracknumber=%tracknr%" -T "Comment=%comment%" %source%
TOC of the extracted CD
Track | Start | Length | Start sector | End sector
---------------------------------------------------------
1 | 0:00.00 | 7:42.40 | 0 | 34689
2 | 7:42.40 | 6:50.35 | 34690 | 65474
3 | 14:33.00 | 6:51.42 | 65475 | 96341
4 | 21:24.42 | 6:57.73 | 96342 | 127689
5 | 28:22.40 | 9:22.05 | 127690 | 169844
6 | 37:44.45 | 4:20.62 | 169845 | 189406
7 | 42:05.32 | 5:39.05 | 189407 | 214836
8 | 47:44.37 | 5:53.38 | 214837 | 241349
Range status and errors
Selected range
Filename F:\1989.Jukka Perko Quartet - Partrait by Heart\Jukka Perko - Portrait By Heart.wav
Peak level 100.0 %
Extraction speed 3.4 X
Range quality 99.9 %
Test CRC 17907521
Copy CRC 17907521
Copy OK
No errors occurred
AccurateRip summary
Track 1 not present in database
Track 2 not present in database
Track 3 not present in database
Track 4 not present in database
Track 5 not present in database
Track 6 not present in database
Track 7 not present in database
Track 8 not present in database
None of the tracks are present in the AccurateRip database
End of status report
==== Log checksum 78E4128E43451DBD7775602A8023B70599A8D91CA96978230BF65C6E7EC7C6E1 ====
 
Содержание индексной карты (.CUE)
REM GENRE Jazz
REM DATE 1989
REM DISCID 770C9208
REM COMMENT "ExactAudioCopy v1.0b3"
PERFORMER "Jukka Perko"
TITLE "Portrait By Heart"
FILE "Jukka Perko - Portrait By Heart.flac" WAVE
TRACK 01 AUDIO
TITLE "Huuhkain"
PERFORMER "Jukka Perko"
FLAGS PRE
INDEX 01 00:00:00
TRACK 02 AUDIO
TITLE "Another Reflection"
PERFORMER "Jukka Perko"
FLAGS PRE
INDEX 00 07:40:50
INDEX 01 07:42:40
TRACK 03 AUDIO
TITLE "Sadih"
PERFORMER "Jukka Perko"
FLAGS PRE
INDEX 01 14:33:00
TRACK 04 AUDIO
TITLE "Concrete Concrete"
PERFORMER "Jukka Perko"
FLAGS PRE
INDEX 00 21:22:55
INDEX 01 21:24:42
TRACK 05 AUDIO
TITLE "Portrait By Heart"
PERFORMER "Jukka Perko"
FLAGS PRE
INDEX 00 28:20:40
INDEX 01 28:22:40
TRACK 06 AUDIO
TITLE "Misty Swamp"
PERFORMER "Jukka Perko"
FLAGS PRE
INDEX 00 37:40:70
INDEX 01 37:44:45
TRACK 07 AUDIO
TITLE "Red-eyed-Rabid"
PERFORMER "Jukka Perko"
FLAGS PRE
INDEX 00 42:02:00
INDEX 01 42:05:32
TRACK 08 AUDIO
TITLE ".. and the bite escaped"
PERFORMER "Jukka Perko"
FLAGS PRE
INDEX 00 47:39:35
INDEX 01 47:44:37
 
Лог проверки качества
AUDIOCHECKER v2.0 beta (build 457) - by Dester - opdester@freemail.hu
~~~~~~~~~~~~~~~~~~~~~~~~~~~~~~~~~~
-=== DO NOT EDIT THIS FILE! ===-
Path: ...\Jukka Perko Quartet 1989 - Partrait By Heart
1 -=- Jukka Perko - Portrait By Heart.flac -=- CDDA (100%)
84105380
 
Об исполнителе (группе)
Saxophonist Jukka Perko (b. 1968) was only a teenager when he played his way into the hearts of the audiences in Pori Jazz Festival 1986. The following year he received an invitation to join the ranks of Dizzy Gillespie's 70th Anniversary Big Band on tour. These days the jazz rhythmics and free flow of ideas that define Perko's art come together with the heartbeat of traditional Finnish music from the powerful harmony of hymns to the tangos of Olavi Virta.
In 1990's Perko was already a really commendable Finnish jazzmusician. The Finnish saxophone society awarded Perko in 1987 with the Pekka Pöyry award and in 1989 Perko received the Finnish Jazz Federation's Georgie, Yrjö, Award. The tours with the Dizzy Gillespie 70th Anniversary Big Band in 1987-88 had also launched Perko's international career. Perko-Pyysalo Poppoo was born in the beginning of 1990's and the group became one of the most active and appreciated Finnish jazzbands of 1990's. The album Garden of Time (Ondine Octopus 1993) was awarded with the Jazz-Emma Award and in 1994 Poppoo received the Finland Prize for Young Art, thanks to the band's active performing around Finland. In 1993 Perko was also awarded with the Young Artist of the Year acknowledgment of Finland Festivals and chosen as the Pori Jazz Artist of the Year.
In the 21st century Perko has been a good example of a musician who has built bridges between different music styles. In fall 2000 Perko presented to the public his new Hurmio Orchestra that performed jazz arrangements of singer Olavi Virta's tango classics. The album Music of Olavi Virta (Blue Note 2000) was both a sales success and appreciated by the critics. A couple of years later it was time for another crossover-production when Perko recorded the record Kaanaanmaa (Blue Note 2002) together with Virtuosi di Kuhmo that consisted of Finnish hymns. Besides these projects Perko has lately been busy with his two groups, Jukka Perko Viisikko and Perko-Pyysalo-Viinikainen Trio.
The hometown of Perko, Huittinen, organized in 2001 a Jukka Perko Saxophone competition Since 2002 Perko has also, as an artistic leader, hosted Viapori Jazz, the jazzfestival organized in Suomenlinna, Helsinki. During his artistic career, Perko has also worked as a teacher and has been an extremely appreciated one. At the same time he has had the opportunity to see the rise of the younger jazz generation.
For Jukka Perko, music is existence. He learned to play as he learned to speak, by listening and mimicking. Perko approaches music from silence and describes his attitude towards playing and composing as balancing between perfectionism and coming to terms with incompleteness. That is perhaps the reason why his notes ring with what some might call grace.
 
Состав
Jukka Perko - saxophones
Kirmo Lintinen - piano
Eerik Siikasaan - bass
Marko Timonen - drums
Recorded at Järvenpää House, August 1989
По всем вопросам пишите личное сообщение пользователю M0p94ok.
15:35
312
Нет комментариев. Ваш будет первым!