Вы используете незарегистрированную версию компонента "Вкладки"!

Поиск

(Avant-Garde, Free Improvisation) [CD] Bartłomiej Oleś & Tomasz Dąbrowski (Bartlomiej Oles & Tomasz Dabrowski) - Chapters - 2015, FLAC (tracks+.cue), lossless

(Avant-Garde, Free Improvisation) [CD] Bartłomiej Oleś & Tomasz Dąbrowski (Bartlomiej Oles & Tomasz Dabrowski) - Chapters - 2015, FLAC (tracks+.cue), lossless
Треклист:
Bartłomiej Oleś & Tomasz Dąbrowski / Chapters
Жанр: Avant-Garde, Free Improvisation
Носитель: CD
Страна-производитель диска (релиза): Poland
Год издания: 2015
Издатель (лейбл): Fenommedia
Номер по каталогу: FM 15-012
Аудиокодек: FLAC (*.flac)
Тип рипа: tracks+.cue
Битрейт аудио: lossless
Продолжительность: 59:55
Источник (релизер): я
Наличие сканов в содержимом раздачи: да
Треклист:
1. Remote Horizon 9:12
2. Thing & Nothing 6:15
3. One Hundred Fourteen 5:49
4. Displacement 8:44
5. Prologue 5:58
6. Chapters – part one 1:49
7. Chapters – part two 4:59
8. Rainstorm (Dąbrowski / Oleś) 8:06
9. Overtune 4:54
10. We See (Thelonious Monk) 4:07
All compositions by Bartłomiej Oleś except where indicated.
Recorded 13-14 September 2014 at MAQ Records Studio, Wojkowice, Poland.
Bartłomiej Oleś – Drums
Tomasz Dąbrowski – Trumpet
 
Лог создания рипа
Exact Audio Copy V1.0 beta 6 from 9. April 2015
EAC extraction logfile from 13. April 2015, 12:27
Bartłomiej Oleś & Tomasz Dąbrowski / Chapters
Used drive : SlimtypeeNAU508 5 Adapter: 1 ID: 1
Read mode : Secure
Utilize accurate stream : Yes
Defeat audio cache : Yes
Make use of C2 pointers : No
Read offset correction : 6
Overread into Lead-In and Lead-Out : No
Fill up missing offset samples with silence : Yes
Delete leading and trailing silent blocks : No
Null samples used in CRC calculations : Yes
Used interface : Native Win32 interface for Win NT & 2000
Gap handling : Appended to previous track
Used output format : User Defined Encoder
Selected bitrate : 768 kBit/s
Quality : High
Add ID3 tag : No
Command line compressor : C:\Program Files (x86)\Exact Audio Copy\Flac\flac.exe
Additional command line options : -8 -V -T "ARTIST=%artist%" -T "TITLE=%title%" -T "ALBUM=%albumtitle%" -T "DATE=%year%" -T "TRACKNUMBER=%tracknr%" -T "TOTALTRACKS=%numtracks%" -T "GENRE=%genre%" -T "ALBUMARTIST=%albumartist%" -T "ALBUM ARTIST=%albumartist%" -T "COMMENT=EAC Secure Mode, Test & Copy, AccurateRip, FLAC -8" %source%
TOC of the extracted CD
Track | Start | Length | Start sector | End sector
---------------------------------------------------------
1 | 0:00.00 | 9:12.12 | 0 | 41411
2 | 9:12.12 | 6:15.25 | 41412 | 69561
3 | 15:27.37 | 5:49.30 | 69562 | 95766
4 | 21:16.67 | 8:44.36 | 95767 | 135102
5 | 30:01.28 | 5:58.05 | 135103 | 161957
6 | 35:59.33 | 1:49.22 | 161958 | 170154
7 | 37:48.55 | 4:59.30 | 170155 | 192609
8 | 42:48.10 | 8:06.22 | 192610 | 229081
9 | 50:54.32 | 4:53.72 | 229082 | 251128
10 | 55:48.29 | 4:06.45 | 251129 | 269623
Track 1
Filename C:\EAC rips\01 - Remote Horizon.wav
Pre-gap length 0:00:02.00
Peak level 99.5 %
Extraction speed 2.6 X
Track quality 100.0 %
Test CRC 5DCA0605
Copy CRC 5DCA0605
Track not present in AccurateRip database
Copy OK
Track 2
Filename C:\EAC rips\02 - Thing & Nothing.wav
Peak level 100.0 %
Extraction speed 2.9 X
Track quality 100.0 %
Test CRC FD9E1100
Copy CRC FD9E1100
Track not present in AccurateRip database
Copy OK
Track 3
Filename C:\EAC rips\03 - One Hundred Fourteen.wav
Peak level 99.5 %
Extraction speed 2.8 X
Track quality 100.0 %
Test CRC 0859BB6B
Copy CRC 0859BB6B
Track not present in AccurateRip database
Copy OK
Track 4
Filename C:\EAC rips\04 - Displacement.wav
Peak level 98.7 %
Extraction speed 3.4 X
Track quality 100.0 %
Test CRC 35F8C5CC
Copy CRC 35F8C5CC
Track not present in AccurateRip database
Copy OK
Track 5
Filename C:\EAC rips\05 - Prologue.wav
Peak level 100.0 %
Extraction speed 3.6 X
Track quality 100.0 %
Test CRC C24B7297
Copy CRC C24B7297
Track not present in AccurateRip database
Copy OK
Track 6
Filename C:\EAC rips\06 - Chapters - part one.wav
Peak level 98.7 %
Extraction speed 3.2 X
Track quality 100.0 %
Test CRC 5CA44D12
Copy CRC 5CA44D12
Track not present in AccurateRip database
Copy OK
Track 7
Filename C:\EAC rips\07 - Chapters - part two.wav
Peak level 99.7 %
Extraction speed 3.8 X
Track quality 100.0 %
Test CRC 04CD0876
Copy CRC 04CD0876
Track not present in AccurateRip database
Copy OK
Track 8
Filename C:\EAC rips\08 - Rainstorm.wav
Peak level 100.0 %
Extraction speed 4.3 X
Track quality 100.0 %
Test CRC 125130AC
Copy CRC 125130AC
Track not present in AccurateRip database
Copy OK
Track 9
Filename C:\EAC rips\09 - Overtune.wav
Peak level 53.2 %
Extraction speed 4.3 X
Track quality 100.0 %
Test CRC C6BDCA18
Copy CRC C6BDCA18
Track not present in AccurateRip database
Copy OK
Track 10
Filename C:\EAC rips\10 - We See.wav
Peak level 98.9 %
Extraction speed 4.0 X
Track quality 100.0 %
Test CRC 069E1539
Copy CRC 069E1539
Track not present in AccurateRip database
Copy OK
None of the tracks are present in the AccurateRip database
No errors occurred
End of status report
---- CUETools DB Plugin V2.1.6
[CTDB TOCID: _GY8rEtJP0Z5sybSA9Z_Pq1e4Xs-] found
Submit result: already submitted
Track | CTDB Status
1 | (1/1) Accurately ripped
2 | (1/1) Accurately ripped
3 | (1/1) Accurately ripped
4 | (1/1) Accurately ripped
5 | (1/1) Accurately ripped
6 | (1/1) Accurately ripped
7 | (1/1) Accurately ripped
8 | (1/1) Accurately ripped
9 | (1/1) Accurately ripped
10 | (1/1) Accurately ripped
==== Log checksum B8DBD506D182D218F1338E7F62EFC885F1D4CD0A57ACECAD65ABB7E99AB3C088 ====
 
Содержание индексной карты (.CUE)
REM GENRE "Fenommedia FM 15-012"
REM DATE 2015
REM DISCID 7E0E0A0A
REM COMMENT "ExactAudioCopy v1.0b6"
PERFORMER "Bartłomiej Oleś & Tomasz Dąbrowski"
TITLE "Chapters"
FILE "01 - Remote Horizon.wav" WAVE
TRACK 01 AUDIO
TITLE "Remote Horizon"
PERFORMER "Bartłomiej Oleś & Tomasz Dąbrowski"
INDEX 01 00:00:00
FILE "02 - Thing & Nothing.wav" WAVE
TRACK 02 AUDIO
TITLE "Thing & Nothing"
PERFORMER "Bartłomiej Oleś & Tomasz Dąbrowski"
INDEX 01 00:00:00
FILE "03 - One Hundred Fourteen.wav" WAVE
TRACK 03 AUDIO
TITLE "One Hundred Fourteen"
PERFORMER "Bartłomiej Oleś & Tomasz Dąbrowski"
INDEX 01 00:00:00
FILE "04 - Displacement.wav" WAVE
TRACK 04 AUDIO
TITLE "Displacement"
PERFORMER "Bartłomiej Oleś & Tomasz Dąbrowski"
INDEX 01 00:00:00
FILE "05 - Prologue.wav" WAVE
TRACK 05 AUDIO
TITLE "Prologue"
PERFORMER "Bartłomiej Oleś & Tomasz Dąbrowski"
INDEX 01 00:00:00
FILE "06 - Chapters - part one.wav" WAVE
TRACK 06 AUDIO
TITLE "Chapters - part one"
PERFORMER "Bartłomiej Oleś & Tomasz Dąbrowski"
INDEX 01 00:00:00
FILE "07 - Chapters - part two.wav" WAVE
TRACK 07 AUDIO
TITLE "Chapters - part two"
PERFORMER "Bartłomiej Oleś & Tomasz Dąbrowski"
INDEX 01 00:00:00
FILE "08 - Rainstorm.wav" WAVE
TRACK 08 AUDIO
TITLE "Rainstorm"
PERFORMER "Bartłomiej Oleś & Tomasz Dąbrowski"
INDEX 01 00:00:00
FILE "09 - Overtune.wav" WAVE
TRACK 09 AUDIO
TITLE "Overtune"
PERFORMER "Bartłomiej Oleś & Tomasz Dąbrowski"
INDEX 01 00:00:00
FILE "10 - We See.wav" WAVE
TRACK 10 AUDIO
TITLE "We See"
PERFORMER "Bartłomiej Oleś & Tomasz Dąbrowski"
INDEX 01 00:00:00
По всем вопросам пишите личное сообщение пользователю M0p94ok.
15:36
223
Нет комментариев. Ваш будет первым!