Вы используете незарегистрированную версию компонента "Вкладки"!

Поиск

(Avant-Garde Jazz, Free Jazz) Charles Tyler Ensemble (Charles Moffett, Joel Freedman, Henry Grimes, Ronald Shannon Jackson) - Charles Tyler Ensemble - 2009, FLAC (tracks+.cue), lossless

(Avant-Garde Jazz, Free Jazz) Charles Tyler Ensemble (Charles Moffett, Joel Freedman, Henry Grimes, Ronald Shannon Jackson) - Charles Tyler Ensemble - 2009, FLAC (tracks+.cue), lossless
Треклист:
Charles Tyler Ensemble / Charles Tyler Ensemble
Жанр: Avant-Garde Jazz, Free Jazz
Страна-производитель диска: Germany
Год издания диска: 2009
Издатель (лейбл): ESP Disk, ZYX Music
Номер по каталогу: ESP 1029-2
Аудиокодек: FLAC (*.flac)
Тип рипа: tracks+.cue
Битрейт аудио: lossless
Продолжительность: 34:01
Источник (релизер): what.cd (bwoy)
Наличие сканов в содержимом раздачи: нет
Треклист:
1 Strange Uhuru 7:14
2 Lacy's Out East 6:50
3 Three Spirits 8:13
4 Black Mysticism 7:03
 
Лог создания рипа
Exact Audio Copy V0.99 prebeta 5 from 4. May 2009
EAC extraction logfile from 6. January 2010, 19:31
Charles Tyler Ensemble / Charles Tyler Ensemble
Used drive : TSSTcorpCDDVDW SH-S223B Adapter: 4 ID: 0
Read mode : Secure
Utilize accurate stream : Yes
Defeat audio cache : Yes
Make use of C2 pointers : No
Read offset correction : 6
Overread into Lead-In and Lead-Out : No
Fill up missing offset samples with silence : Yes
Delete leading and trailing silent blocks : No
Null samples used in CRC calculations : Yes
Used interface : Native Win32 interface for Win NT & 2000
Gap handling : Appended to previous track
Used output format : User Defined Encoder
Selected bitrate : 192 kBit/s
Quality : High
Add ID3 tag : No
Command line compressor : C:\Program Files\FLAC\flac.exe
Additional command line options : -8 -b 4096 -V -T "artist=%a" -T "title=%t" -T "album=%g" -T "date=%y" -T "tracknumber=%n" -T "genre=%m" %s
TOC of the extracted CD
Track | Start | Length | Start sector | End sector
---------------------------------------------------------
1 | 0:00.00 | 10:00.65 | 0 | 45064
2 | 10:00.65 | 6:37.45 | 45065 | 74884
3 | 16:38.35 | 8:07.18 | 74885 | 111427
4 | 24:45.53 | 9:15.20 | 111428 | 153072
Track 1
Filename C:\rippat\personal\Charles Tyler Ensemble\2009 - Charles Tyler Ensemble\01. Strange Uhuru.wav
Pre-gap length 0:00:02.00
Peak level 80.1 %
Track quality 100.0 %
Test CRC FE241453
Copy CRC FE241453
Track not present in AccurateRip database
Copy OK
Track 2
Filename C:\rippat\personal\Charles Tyler Ensemble\2009 - Charles Tyler Ensemble\02. Lacy's Out East.wav
Pre-gap length 0:00:02.00
Peak level 78.9 %
Track quality 100.0 %
Test CRC A982841B
Copy CRC A982841B
Track not present in AccurateRip database
Copy OK
Track 3
Filename C:\rippat\personal\Charles Tyler Ensemble\2009 - Charles Tyler Ensemble\03. Three Spirits.wav
Pre-gap length 0:00:02.00
Peak level 81.3 %
Track quality 100.0 %
Test CRC 6630652C
Copy CRC 6630652C
Track not present in AccurateRip database
Copy OK
Track 4
Filename C:\rippat\personal\Charles Tyler Ensemble\2009 - Charles Tyler Ensemble\04. Black Mysticism.wav
Pre-gap length 0:00:02.00
Peak level 77.8 %
Track quality 100.0 %
Test CRC 4EA04D96
Copy CRC 4EA04D96
Track not present in AccurateRip database
Copy OK
None of the tracks are present in the AccurateRip database
No errors occurred
End of status report
 
Содержание индексной карты (.CUE)
REM GENRE Jazz
REM DATE 2009
REM DISCID 1F07F804
REM COMMENT "ExactAudioCopy v0.99pb5"
PERFORMER "Charles Tyler Ensemble"
TITLE "Charles Tyler Ensemble"
FILE "01. Strange Uhuru.flac" WAVE
TRACK 01 AUDIO
TITLE "Strange Uhuru"
PERFORMER "Charles Tyler Ensemble"
INDEX 01 00:00:00
TRACK 02 AUDIO
TITLE "Lacy's Out East"
PERFORMER "Charles Tyler Ensemble"
INDEX 00 09:58:65
FILE "02. Lacy's Out East.flac" WAVE
INDEX 01 00:00:00
TRACK 03 AUDIO
TITLE "Three Spirits"
PERFORMER "Charles Tyler Ensemble"
INDEX 00 06:35:45
FILE "03. Three Spirits.flac" WAVE
INDEX 01 00:00:00
TRACK 04 AUDIO
TITLE "Black Mysticism"
PERFORMER "Charles Tyler Ensemble"
INDEX 00 08:05:18
FILE "04. Black Mysticism.flac" WAVE
INDEX 01 00:00:00
Доп. информация: Recorded February 4, 1966 in Indianapolis.
 
Об альбоме (сборнике)
From http://www.espdisk.com/official/catalog/1029.html
Charles Tyler, from Albert Ayler's band, makes a startling statement on his debut solo record. His group, featuring an unusual instrumentation of cello, bass, drums, orchestra vibes, and saxophone, plays through his original compositions and showcases some heated solos.
Although primarily known as a baritone sax player, Charles Tyler is featured on alto sax yet his sound and concept are fully evident on this record.
Press quotes
"Alto and baritone saxophonist Charles Tyler, one of the major voices in avant-garde jazz, began playing with Albert Ayler in Cleveland in the early 1960s, and soon followed Ayler east to take part in New York's fertile jazz scene. While continuing to play with Ayler in NYC (appearing on both Bells and Spirits Rejoice), Tyler also began leading his own sessions, and in 1966 ESP-Disk released his fiery debut as front man, the Charles Tyler Ensemble, featuring Charles Moffett on orchestra vibes, Joel Friedman on cello, Henry Grimes on bass and Ronald Shannon Jackson on drums." - Forced Exposure
 
Состав
Charles Tyler: alto sax
Charles Moffett: orchestra vibes
Joel Freedman: cello
Henry Grimes: bass
Ronald Shannon Jackson: drums
Any questions - support@pro-jazz.com. Есть вопросы - support@pro-jazz.com
22:25
347
Нет комментариев. Ваш будет первым!