Вы используете незарегистрированную версию компонента "Вкладки"!

Поиск

(Avant-Garde Jazz) Boris Hauf Sextet - Next Delusion - 2011, FLAC (tracks+.cue), lossless

(Avant-Garde Jazz) Boris Hauf Sextet - Next Delusion - 2011, FLAC (tracks+.cue), lossless
Треклист:
Boris Hauf Sextet / Next Delusion
Жанр: Avant-Garde Jazz
Страна-производитель диска: Portugal
Год издания диска: 2011
Издатель (лейбл): Clean Feed
Номер по каталогу: CF238CD
Аудиокодек: FLAC (*.flac)
Тип рипа: tracks+.cue
Битрейт аудио: lossless
Продолжительность: 42:48
Источник (релизер): CD
Наличие сканов в содержимом раздачи: да
Треклист:
1. Gregory Grant Machine (11:07)
2. Eighteen Ghost Roads (7:20)
3. Fame & Riches (11:19)
4. Wayward Lanes (13:03)
 
Лог создания рипа
Exact Audio Copy V1.0 beta 2 from 29. April 2011
EAC extraction logfile from 24. February 2012, 16:51
Boris Hauf Sextet / Next Delusion
Used drive : Optiarc DVD RW AD-7240S Adapter: 2 ID: 0
Read mode : Secure
Utilize accurate stream : Yes
Defeat audio cache : Yes
Make use of C2 pointers : No
Read offset correction : 48
Overread into Lead-In and Lead-Out : No
Fill up missing offset samples with silence : Yes
Delete leading and trailing silent blocks : No
Null samples used in CRC calculations : Yes
Used interface : Installed external ASPI interface
Gap handling : Appended to previous track
Used output format : User Defined Encoder
Selected bitrate : 128 kBit/s
Quality : High
Add ID3 tag : No
Command line compressor : C:\Program Files\Exact Audio Copy\FLAC\FLAC.EXE
Additional command line options : -8 -V -T "ARTIST=%artist%" -T "TITLE=%title%" -T "ALBUM=%albumtitle%" -T "DATE=%year%" -T "TRACKNUMBER=%tracknr%" -T "GENRE=%genre%" -T "COMMENT=%comment%" -T "BAND=%albuminterpret%" -T "COMPOSER=%composer%" %haslyrics%--ta
TOC of the extracted CD
Track | Start | Length | Start sector | End sector
---------------------------------------------------------
1 | 0:00.00 | 11:06.58 | 0 | 50007
2 | 11:06.58 | 7:19.43 | 50008 | 82975
3 | 18:26.26 | 11:19.23 | 82976 | 133923
4 | 29:45.49 | 13:02.69 | 133924 | 192642
Track 1
Filename C:\ukho\Boris Hauf Sextet (2011) - Next Delusion\01 Gregory Grant Machine.wav
Pre-gap length 0:00:02.00
Peak level 97.0 %
Extraction speed 2.9 X
Track quality 100.0 %
Test CRC 7AD4F35E
Copy CRC 7AD4F35E
Track not present in AccurateRip database
Copy OK
Track 2
Filename C:\ukho\Boris Hauf Sextet (2011) - Next Delusion\02 Eighteen Ghost Roads.wav
Pre-gap length 0:00:02.26
Peak level 97.7 %
Extraction speed 3.2 X
Track quality 99.9 %
Test CRC B48F5057
Copy CRC B48F5057
Track not present in AccurateRip database
Copy OK
Track 3
Filename C:\ukho\Boris Hauf Sextet (2011) - Next Delusion\03 Fame and Riches.wav
Pre-gap length 0:00:00.73
Peak level 97.2 %
Extraction speed 4.0 X
Track quality 100.0 %
Test CRC AF59498E
Copy CRC AF59498E
Track not present in AccurateRip database
Copy OK
Track 4
Filename C:\ukho\Boris Hauf Sextet (2011) - Next Delusion\04 Wayward Lanes.wav
Pre-gap length 0:00:05.64
Peak level 97.7 %
Extraction speed 4.6 X
Track quality 100.0 %
Test CRC 57AF3137
Copy CRC 57AF3137
Track not present in AccurateRip database
Copy OK
None of the tracks are present in the AccurateRip database
No errors occurred
End of status report
==== Log checksum 318E46CABE85AE45BF9909549157D7D9C5C051C4DEA4A1E008A7AF81FE2F4086 ====
 
Содержание индексной карты (.CUE)
REM GENRE Jazz
REM DATE 2011
REM DISCID 370A0804
REM COMMENT "ExactAudioCopy v1.0b2"
PERFORMER "Boris Hauf Sextet"
TITLE "Next Delusion"
FILE "01 Gregory Grant Machine.wav" WAVE
TRACK 01 AUDIO
TITLE "Gregory Grant Machine"
PERFORMER "Boris Hauf Sextet"
ISRC PTNF11108898
FLAGS DCP
INDEX 01 00:00:00
TRACK 02 AUDIO
TITLE "Eighteen Ghost Roads"
PERFORMER "Boris Hauf Sextet"
ISRC PTNF11108899
FLAGS DCP
INDEX 00 11:04:32
FILE "02 Eighteen Ghost Roads.wav" WAVE
INDEX 01 00:00:00
TRACK 03 AUDIO
TITLE "Fame and Riches"
PERFORMER "Boris Hauf Sextet"
ISRC PTNF11108900
FLAGS DCP
INDEX 00 07:18:45
FILE "03 Fame and Riches.wav" WAVE
INDEX 01 00:00:00
TRACK 04 AUDIO
TITLE "Wayward Lanes"
PERFORMER "Boris Hauf Sextet"
ISRC PTNF11108901
FLAGS DCP
INDEX 00 11:13:34
FILE "04 Wayward Lanes.wav" WAVE
INDEX 01 00:00:00
 
Доп. информация
Recorded April 2010 at Strobe Recording, Chicago by Todd A. Carter
 
Об альбоме (сборнике)
What can you expect from a Berlin-based saxophonist (tenor and soprano) who also has a parallel activity as an electronic musician? Well… the unexpected. And the surprise here is not only the instrumental configuration – three horn players, three drummers -, but also the musicians associated. Keefe Jackson (tenor sax, contrabass clarinet), Jason Stein (bass clarinet) and Frank Rosaly (drums) are names you can find in several Chicago avant-jazz projects, but the other choices made by Boris Hauf, also centered in the Wind City, are a puzzling indication that this sextet is not a common Chicagoan enterprise. Michael Hartman (drums, electronics) comes from the noise/electronic ensemble TV Pow, and Steven Hess works normally in brutal metal and “near silence” electro-acoustic bands like Cleared, Haptic and Locrian, going from one extreme to the other. Before even listening to the CD you’re aware of the proposed intentions: to explore all the contradictions naturally introduced by the performers, and to keep alive the inherent musical tensions. And the truth is that “Next Delusion” boils to the point of explosion. Remarkable. ~ cleanfeed-records.com
 
Состав
Boris Hauf - tenor sax, soprano sax
Keefe Jackson - tenor sax, contrabassclarinet
Jason Stein - bassclarinet
Frank Rosaly - drums
Steven Hess - drums, electronics
Michael Hartman - drums
Any questions -> support@pro-jazz.com. По всем вопросам пишите -> support@pro-jazz.com
22:25
198
Нет комментариев. Ваш будет первым!