Вы используете незарегистрированную версию компонента "Вкладки"!

Поиск

(Avant-Garde Jazz, Free Jazz) [CD] The Workshop (Stephane Payen, Olivier Laisney, Guillaume Ruelland, Vincent Sauve) - Conversations With The Drum - 2015, FLAC (tracks+.cue), lossless

(Avant-Garde Jazz, Free Jazz) [CD] The Workshop (Stephane Payen, Olivier Laisney, Guillaume Ruelland, Vincent Sauve) - Conversations With The Drum - 2015, FLAC (tracks+.cue), lossless
Треклист:
The Workshop - Conversations With The Drum Жанр: Avant-Garde Jazz, Free Jazz
Носитель: CD
Год издания: 2015
Издатель (лейбл): Onze Heures Onze
Номер по каталогу: ONZ010
Аудиокодек: FLAC (*.flac)
Тип рипа: tracks+.cue
Битрейт аудио: lossless
Продолжительность: 42:49
Rip by dtromp
Наличие сканов в содержимом раздачи: да
Треклист:
01. The Riff Thing (0:58)
02. Lyon Part One (4:32)
03. Nine To Hate (6:35)
04. Sesirnu (5:00)
05. Lyon Part Two (2:27)
06. Brasil (6:13)
07. F-ire Steps (4:02)
08. Sesirnu Coda (1:20)
09. City (5:53)
10. 3D Unstretched (3:42)
11. The Step Thing (2:06)
Personnel:
Stéphane Payen - alto sax
Olivier Laisney - trumpet
Guillaume Ruelland - electric bass
Vincent Sauve - drums
 
 
Лог создания рипа
Exact Audio Copy V1.1 from 23. June 2015
EAC extraction logfile from 3. September 2015, 23:31
The Workshop / Conversations With The Drum
Used drive : ATAPI iHBS112 2 Adapter: 1 ID: 0
Read mode : Secure
Utilize accurate stream : Yes
Defeat audio cache : Yes
Make use of C2 pointers : No
Read offset correction : 6
Overread into Lead-In and Lead-Out : No
Fill up missing offset samples with silence : Yes
Delete leading and trailing silent blocks : No
Null samples used in CRC calculations : Yes
Used interface : Native Win32 interface for Win NT & 2000
Gap handling : Appended to previous track
Used output format : User Defined Encoder
Selected bitrate : 1024 kBit/s
Quality : High
Add ID3 tag : No
Command line compressor : C:\Program Files\Exact Audio Copy\Flac\flac.exe
Additional command line options : -8 -V -T "ARTIST=%artist%" -T "TITLE=%title%" -T "ALBUM=%albumtitle%" -T "DATE=%year%" -T "TRACKNUMBER=%tracknr%" -T "TOTALTRACKS=%numtracks%" -T "GENRE=%genre%" -T "ALBUMARTIST=%albumartist%" -T "ALBUM ARTIST=%albumartist%" -T "COMPOSER=%composer%" -T "PERFORMER=%albuminterpret%" -T "DISCNUMBER=%cdnumber%" -T "TOTALDISCS=%totalcds%" -T "COMMENT=EAC Secure Mode, Test & Copy, AccurateRip, FLAC -8" %source%
TOC of the extracted CD
Track | Start | Length | Start sector | End sector
---------------------------------------------------------
1 | 0:00.00 | 0:57.69 | 0 | 4343
2 | 0:57.69 | 4:32.11 | 4344 | 24754
3 | 5:30.05 | 6:35.08 | 24755 | 54387
4 | 12:05.13 | 4:59.68 | 54388 | 76880
5 | 17:05.06 | 2:27.01 | 76881 | 87906
6 | 19:32.07 | 6:13.23 | 87907 | 115904
7 | 25:45.30 | 4:02.15 | 115905 | 134069
8 | 29:47.45 | 1:20.24 | 134070 | 140093
9 | 31:07.69 | 5:53.09 | 140094 | 166577
10 | 37:01.03 | 3:42.00 | 166578 | 183227
11 | 40:43.03 | 2:05.47 | 183228 | 192649
Track 1
Filename P:\DL\The Workshop - Conversations With The Drum (2014) [FLAC]\01 - The Riff Thing.wav
Pre-gap length 0:00:02.00
Peak level 100.0 %
Extraction speed 3.3 X
Track quality 100.0 %
Test CRC 0E57F7C2
Copy CRC 0E57F7C2
Track not present in AccurateRip database
Copy OK
Track 2
Filename P:\DL\The Workshop - Conversations With The Drum (2014) [FLAC]\02 - Lyon Part One.wav
Peak level 100.0 %
Extraction speed 5.2 X
Track quality 100.0 %
Test CRC EEB82EAD
Copy CRC EEB82EAD
Track not present in AccurateRip database
Copy OK
Track 3
Filename P:\DL\The Workshop - Conversations With The Drum (2014) [FLAC]\03 - Nine To Hate.wav
Peak level 100.0 %
Extraction speed 6.0 X
Track quality 100.0 %
Test CRC 9DDBA43D
Copy CRC 9DDBA43D
Track not present in AccurateRip database
Copy OK
Track 4
Filename P:\DL\The Workshop - Conversations With The Drum (2014) [FLAC]\04 - Sesirnu.wav
Peak level 100.0 %
Extraction speed 6.5 X
Track quality 100.0 %
Test CRC 758D83DD
Copy CRC 758D83DD
Track not present in AccurateRip database
Copy OK
Track 5
Filename P:\DL\The Workshop - Conversations With The Drum (2014) [FLAC]\05 - Lyon Part Two.wav
Peak level 100.0 %
Extraction speed 6.2 X
Track quality 100.0 %
Test CRC 0CFC21B1
Copy CRC 0CFC21B1
Track not present in AccurateRip database
Copy OK
Track 6
Filename P:\DL\The Workshop - Conversations With The Drum (2014) [FLAC]\06 - Brasil.wav
Peak level 100.0 %
Extraction speed 7.4 X
Track quality 100.0 %
Test CRC 65630093
Copy CRC 65630093
Track not present in AccurateRip database
Copy OK
Track 7
Filename P:\DL\The Workshop - Conversations With The Drum (2014) [FLAC]\07 - F-ire Steps.wav
Peak level 100.0 %
Extraction speed 7.6 X
Track quality 100.0 %
Test CRC 6927064F
Copy CRC 6927064F
Track not present in AccurateRip database
Copy OK
Track 8
Filename P:\DL\The Workshop - Conversations With The Drum (2014) [FLAC]\08 - Sesirnu Coda.wav
Peak level 99.1 %
Extraction speed 4.2 X
Track quality 99.8 %
Test CRC 1850CA98
Copy CRC 1850CA98
Track not present in AccurateRip database
Copy OK
Track 9
Filename P:\DL\The Workshop - Conversations With The Drum (2014) [FLAC]\09 - City.wav
Peak level 100.0 %
Extraction speed 8.4 X
Track quality 100.0 %
Test CRC DC1A64B5
Copy CRC DC1A64B5
Track not present in AccurateRip database
Copy OK
Track 10
Filename P:\DL\The Workshop - Conversations With The Drum (2014) [FLAC]\10 - 3D Unstretched.wav
Peak level 100.0 %
Extraction speed 7.9 X
Track quality 100.0 %
Test CRC 7C02F70F
Copy CRC 7C02F70F
Track not present in AccurateRip database
Copy OK
Track 11
Filename P:\DL\The Workshop - Conversations With The Drum (2014) [FLAC]\11 - The Step Thing.wav
Peak level 98.7 %
Extraction speed 7.2 X
Track quality 100.0 %
Test CRC 7A612D70
Copy CRC 7A612D70
Track not present in AccurateRip database
Copy OK
None of the tracks are present in the AccurateRip database
No errors occurred
End of status report
---- CUETools DB Plugin V2.1.6
[CTDB TOCID: 28ZOhjBMUjJ_1gz1SATmaCIXrXI-] disk not present in database
Submit result:
==== Log checksum 2B606D8F3077B615AE8B6902C83EF64D44A646CAC1F6B46E4A996B7ED03671DE ====
 
Содержание индексной карты (.CUE)
REM GENRE Jazz
REM DATE 2014
REM DISCID 990A080B
REM COMMENT "ExactAudioCopy v1.1"
PERFORMER "The Workshop"
TITLE "Conversations With The Drum"
FILE "01 - The Riff Thing.wav" WAVE
TRACK 01 AUDIO
TITLE "The Riff Thing"
PERFORMER "The Workshop"
INDEX 01 00:00:00
FILE "02 - Lyon Part One.wav" WAVE
TRACK 02 AUDIO
TITLE "Lyon Part One"
PERFORMER "The Workshop"
INDEX 01 00:00:00
FILE "03 - Nine To Hate.wav" WAVE
TRACK 03 AUDIO
TITLE "Nine To Hate"
PERFORMER "The Workshop"
INDEX 01 00:00:00
FILE "04 - Sesirnu.wav" WAVE
TRACK 04 AUDIO
TITLE "Sesirnu"
PERFORMER "The Workshop"
INDEX 01 00:00:00
FILE "05 - Lyon Part Two.wav" WAVE
TRACK 05 AUDIO
TITLE "Lyon Part Two"
PERFORMER "The Workshop"
INDEX 01 00:00:00
FILE "06 - Brasil.wav" WAVE
TRACK 06 AUDIO
TITLE "Brasil"
PERFORMER "The Workshop"
INDEX 01 00:00:00
FILE "07 - F-ire Steps.wav" WAVE
TRACK 07 AUDIO
TITLE "F-ire Steps"
PERFORMER "The Workshop"
INDEX 01 00:00:00
FILE "08 - Sesirnu Coda.wav" WAVE
TRACK 08 AUDIO
TITLE "Sesirnu Coda"
PERFORMER "The Workshop"
INDEX 01 00:00:00
FILE "09 - City.wav" WAVE
TRACK 09 AUDIO
TITLE "City"
PERFORMER "The Workshop"
INDEX 01 00:00:00
FILE "10 - 3D Unstretched.wav" WAVE
TRACK 10 AUDIO
TITLE "3D Unstretched"
PERFORMER "The Workshop"
INDEX 01 00:00:00
FILE "11 - The Step Thing.wav" WAVE
TRACK 11 AUDIO
TITLE "The Step Thing"
PERFORMER "The Workshop"
INDEX 01 00:00:00
По всем вопросам пишите личное сообщение пользователю M0p94ok.
15:32
236
Нет комментариев. Ваш будет первым!