Вы используете незарегистрированную версию компонента "Вкладки"!

Поиск

(Avant-Garde Jazz, Free Jazz) [CD] John Coltrane - Jupiter Variation (1967) - 2015 {UCCI-9250}, FLAC (tracks+.cue), lossless

(Avant-Garde Jazz, Free Jazz) [CD] John Coltrane - Jupiter Variation (1967) - 2015 {UCCI-9250}, FLAC (tracks+.cue), lossless
Треклист:
John Coltrane - Jupiter Variation (1967) Жанр: Avant-Garde Jazz, Free Jazz
Носитель: CD
Страна-производитель диска (релиза): Japan
Год издания: 2015
Издатель (лейбл): Impulse!/Verve/Universal Music Japan
Номер по каталогу: UCCI-9250
Аудиокодек: FLAC (*.flac)
Тип рипа: tracks+.cue
Битрейт аудио: lossless
Продолжительность: 36:51
Rip by ruskaval
Наличие сканов в содержимом раздачи: да
Треклист:
01. Number One (11:59)
02. Peace On Earth (7:12)
03. Jupiter (Variation) (6:47)
04. Leo (10:53)
Personnel:
John Coltrane - tenor saxophone
Alice Coltrane - piano
Jimmy Garrison, Charlie Haden - bass
Rashied Ali - drums
Pharoah Sanders - flute, tambourine
Ray Appleton - shaker
 
 
Лог создания рипа
Exact Audio Copy V1.1 from 23. June 2015
EAC extraction logfile from 8. September 2015, 21:38
John Coltrane / Jupiter Variation
Used drive : TSSTcorpCDDVDW SE-208DB Adapter: 7 ID: 0
Read mode : Secure
Utilize accurate stream : Yes
Defeat audio cache : Yes
Make use of C2 pointers : No
Read offset correction : 6
Overread into Lead-In and Lead-Out : No
Fill up missing offset samples with silence : Yes
Delete leading and trailing silent blocks : No
Null samples used in CRC calculations : Yes
Used interface : Installed external ASPI interface
Gap handling : Appended to previous track
Used output format : User Defined Encoder
Selected bitrate : 1024 kBit/s
Quality : High
Add ID3 tag : No
Command line compressor : C:\Program Files (x86)\FLAC Frontend\tools\flac.exe
Additional command line options : -8 -V -T "ARTIST=%artist%" -T "TITLE=%title%" -T "ALBUM=%albumtitle%" -T "DATE=%year%" -T "TRACKNUMBER=%tracknr%" -T "TOTALTRACKS=%numtracks%" -T "GENRE=%genre%" -T "ALBUMARTIST=%albumartist%" -T "ALBUM ARTIST=%albumartist%" -T "COMMENT=EAC Secure Mode, Test & Copy, AccurateRip, FLAC -8" %source%
TOC of the extracted CD
Track | Start | Length | Start sector | End sector
---------------------------------------------------------
1 | 0:00.00 | 11:58.74 | 0 | 53923
2 | 11:58.74 | 7:12.21 | 53924 | 86344
3 | 19:11.20 | 6:46.38 | 86345 | 116832
4 | 25:57.58 | 10:53.17 | 116833 | 165824
Track 1
Filename M:\_EAC\John Coltrane - Jupiter Variation (1967) [FLAC] {2015 Japan Impulse! Classics 50 Series}\01 - Number One.wav
Pre-gap length 0:00:02.00
Peak level 100.0 %
Extraction speed 1.4 X
Track quality 100.0 %
Test CRC 82E145FD
Copy CRC 82E145FD
Accurately ripped (confidence 1) [F8CA8B1D] (AR v2)
Copy OK
Track 2
Filename M:\_EAC\John Coltrane - Jupiter Variation (1967) [FLAC] {2015 Japan Impulse! Classics 50 Series}\02 - Peace On Earth.wav
Pre-gap length 0:00:02.37
Peak level 90.4 %
Extraction speed 1.6 X
Track quality 100.0 %
Test CRC D7C12CDA
Copy CRC D7C12CDA
Accurately ripped (confidence 1) [05547E41] (AR v2)
Copy OK
Track 3
Filename M:\_EAC\John Coltrane - Jupiter Variation (1967) [FLAC] {2015 Japan Impulse! Classics 50 Series}\03 - Jupiter (Variation).wav
Pre-gap length 0:00:02.37
Peak level 100.0 %
Extraction speed 1.8 X
Track quality 100.0 %
Test CRC 69B71CDD
Copy CRC 69B71CDD
Accurately ripped (confidence 1) [82CAEF06] (AR v2)
Copy OK
Track 4
Filename M:\_EAC\John Coltrane - Jupiter Variation (1967) [FLAC] {2015 Japan Impulse! Classics 50 Series}\04 - Leo.wav
Pre-gap length 0:00:02.37
Peak level 94.4 %
Extraction speed 2.1 X
Track quality 100.0 %
Test CRC A8E6C3BB
Copy CRC A8E6C3BB
Accurately ripped (confidence 1) [EA4604B5] (AR v2)
Copy OK
All tracks accurately ripped
No errors occurred
End of status report
==== Log checksum 2D0A99C81B6F985FB80F8FB271B5406D4CCC9EE1FF2AD3D2DECE11F6FA46F52E ====
 
Содержание индексной карты (.CUE)
REM GENRE Jazz
REM DATE 1967
REM DISCID 2908A304
REM COMMENT "ExactAudioCopy v1.1"
PERFORMER "John Coltrane"
TITLE "Jupiter Variation"
FILE "01 - Number One.wav" WAVE
TRACK 01 AUDIO
TITLE "Number One"
PERFORMER "John Coltrane"
INDEX 01 00:00:00
TRACK 02 AUDIO
TITLE "Peace On Earth"
PERFORMER "John Coltrane"
INDEX 00 11:56:37
FILE "02 - Peace On Earth.wav" WAVE
INDEX 01 00:00:00
TRACK 03 AUDIO
TITLE "Jupiter (Variation)"
PERFORMER "John Coltrane"
INDEX 00 07:09:59
FILE "03 - Jupiter (Variation).wav" WAVE
INDEX 01 00:00:00
TRACK 04 AUDIO
TITLE "Leo"
PERFORMER "John Coltrane"
INDEX 00 06:44:01
FILE "04 - Leo.wav" WAVE
INDEX 01 00:00:00
По всем вопросам пишите личное сообщение пользователю M0p94ok.
15:32
244
Нет комментариев. Ваш будет первым!