Вы используете незарегистрированную версию компонента "Вкладки"!

Поиск

(Avant-Garde Jazz, Free Jazz) [CD] John Coltrane - Transition - 1965 (1987), FLAC (tracks+.cue), lossless

(Avant-Garde Jazz, Free Jazz) [CD] John Coltrane - Transition - 1965 (1987), FLAC (tracks+.cue), lossless
Треклист:
John Coltrane - Transition
Жанр: Avant-Garde Jazz, Free Jazz
Носитель: CD
Страна-производитель диска (релиза): Германия
Год издания: 1987
Издатель (лейбл): Impulse!/MCA
Номер по каталогу: 254 611-2
Страна исполнителя (группы): США
Аудиокодек: FLAC (*.flac)
Тип рипа: tracks+.cue
Битрейт аудио: lossless
Продолжительность: 42:24
Источник (релизер): crispi (what)
Наличие сканов в содержимом раздачи: нет
Треклист:
01. Transition (Coltrane) - 15:31
02. Dear Lord (Coltrane) - 5:38
03. Suite: Prayer and Meditation: Day/Peace and After/Prayer and Meditation: Evening/Affirmation/Prayer and Meditation: 4 A.M. (Coltrane) - 21:15
Состав:
John Coltrane - tenor saxophone
McCoy Tyner - piano
Jimmy Garrison - bass
Elvin Jones - drums
Recorded at the Van Gelder Studio, Englewood Cliffs on May 26 (#2) and June 10 (#1,3), 1965.
Digitally remastered from the original stereo master tapes.
 
Лог создания рипа
X Lossless Decoder version 20151214 (149.1)
XLD extraction logfile from 2016-03-18 13:22:17 +0100
John Coltrane / Transition
Used drive : Apple SuperDrive (revision 2.03)
Media type : Pressed CD
Ripper mode : XLD Secure Ripper
Disable audio cache : OK for the drive with a cache less than 1375KiB
Make use of C2 pointers : NO
Read offset correction : 6
Max retry count : 20
Gap status : Analyzed, Appended (except HTOA)
TOC of the extracted CD
Track | Start | Length | Start sector | End sector
---------------------------------------------------------
1 | 00:00:32 | 15:31:05 | 32 | 69861
2 | 15:31:37 | 05:38:03 | 69862 | 95214
3 | 21:09:40 | 21:15:20 | 95215 | 190859
AccurateRip Summary (DiscID: 00056e81-001223e9-1c09f003)
Track 01 : OK (v1+v2, confidence 5/5)
Track 02 : OK (v1+v2, confidence 5/5)
Track 03 : OK (v1+v2, confidence 5/5)
->All tracks accurately ripped.
All Tracks
Album gain : -3.12 dB
Peak : 0.833740
Statistics
Read error : 0
Jitter error (maybe fixed) : 0
Retry sector count : 0
Damaged sector count : 0
Track 01
Filename : /Volumes/2TB archaeology/whatcd/_ups/John Coltrane - Transition (1987 MCA West Germany)/01 Transition.flac
Pre-gap length : 00:02:32
Track gain : -3.41 dB
Peak : 0.772736
CRC32 hash (test run) : C05D1901
CRC32 hash : C05D1901
CRC32 hash (skip zero) : 521284B2
AccurateRip v1 signature : 3395C4E7
AccurateRip v2 signature : 18074B6A
->Accurately ripped (v1+v2, confidence 3+2/5)
Statistics
Read error : 0
Jitter error (maybe fixed) : 0
Retry sector count : 0
Damaged sector count : 0
Track 02
Filename : /Volumes/2TB archaeology/whatcd/_ups/John Coltrane - Transition (1987 MCA West Germany)/02 Dear Lord.flac
Pre-gap length : 00:04:12
Track gain : -1.80 dB
Peak : 0.646240
CRC32 hash (test run) : C0454076
CRC32 hash : C0454076
CRC32 hash (skip zero) : 58F2A299
AccurateRip v1 signature : 654429E6
AccurateRip v2 signature : DE6EA731
->Accurately ripped (v1+v2, confidence 3+2/5)
Statistics
Read error : 0
Jitter error (maybe fixed) : 0
Retry sector count : 0
Damaged sector count : 0
Track 03
Filename : /Volumes/2TB archaeology/whatcd/_ups/John Coltrane - Transition (1987 MCA West Germany)/03 Suite.flac
Pre-gap length : 00:04:03
Track gain : -3.04 dB
Peak : 0.833740
CRC32 hash (test run) : 503B6D8F
CRC32 hash : 503B6D8F
CRC32 hash (skip zero) : 939DAD37
AccurateRip v1 signature : 7F712341
AccurateRip v2 signature : 160A6199
->Accurately ripped (v1+v2, confidence 3+2/5)
Statistics
Read error : 0
Jitter error (maybe fixed) : 0
Retry sector count : 0
Damaged sector count : 0
No errors occurred
End of status report
-----BEGIN XLD SIGNATURE-----
xE3RTrG59tYsXPMcjSEo.gy0GRyvvcmmC0nVOqQShjEw3c9Znn2dIIs3G0bc34HUMhjn1yi5DLnzIHqpEL6MH52a_CHi6Ug7IdG0dgW
-----END XLD SIGNATURE-----
 
Содержание индексной карты (.CUE)
TITLE "Transition"
PERFORMER "John Coltrane"
REM GENRE "Jazz"
REM DATE "1965"
REM DISCID 1C09F003
REM REPLAYGAIN_ALBUM_GAIN -3.12 dB
REM REPLAYGAIN_ALBUM_PEAK 0.833740
FILE "01 - Transition.flac" WAVE
TRACK 01 AUDIO
TITLE "Transition"
REM REPLAYGAIN_TRACK_GAIN -3.41 dB
REM REPLAYGAIN_TRACK_PEAK 0.772736
PREGAP 00:00:32
INDEX 01 00:00:00
TRACK 02 AUDIO
TITLE "Dear Lord"
REM REPLAYGAIN_TRACK_GAIN -1.80 dB
REM REPLAYGAIN_TRACK_PEAK 0.646240
INDEX 00 15:26:68
FILE "02 - Dear Lord.flac" WAVE
INDEX 01 00:00:00
TRACK 03 AUDIO
TITLE "Suite"
REM REPLAYGAIN_TRACK_GAIN -3.04 dB
REM REPLAYGAIN_TRACK_PEAK 0.833740
INDEX 00 05:34:00
FILE "03 - Suite.flac" WAVE
INDEX 01 00:00:00
 
Отчет CUETools
[CUETools log; Date: 21.03.2016 2:42:27; Version: 2.1.5]
Pregap length 00:00:32.
[CTDB TOCID: t03B6CZ9f6irrMiiQOXCf4W2YBU-] found.
Track | CTDB Status
1 | (3/3) Accurately ripped
2 | (3/3) Accurately ripped
3 | (3/3) Accurately ripped
[AccurateRip ID: 00056e81-001223e9-1c09f003] found.
Track [ CRC | V2 ] Status
01 [3395c4e7|18074b6a] (3+2/5) Accurately ripped
02 [654429e6|de6ea731] (3+2/5) Accurately ripped
03 [7f712341|160a6199] (3+2/5) Accurately ripped
Track Peak [ CRC32 ] [W/O NULL]
-- 83,3 [07B5ACE9] [30E0B102]
01 77,2 [C05D1901] [521284B2]
02 64,6 [C0454076] [58F2A299]
03 83,3 [503B6D8F] [939DAD37]
 
AllMusic Review by Fred Thomas
Recorded in June of 1965 and released posthumously in 1970, Transition acts as a neat perforation mark between Coltrane's classic quartet and the cosmic explorations that would follow until Trane's passing in 1967. Recorded seven months after the standard-setting A Love Supreme, Transition's first half bears much in common with that groundbreaking set. Spiritually reaching and burningly intense, the quartet is playing at full steam, but still shy of the total free exploration that would follow mere months later on records like Sun Ship and the mystical atonal darkness that came in the fall of that same year with Om. McCoy Tyner's gloriously roaming piano chord clusters add depth and counterpoint to Coltrane's ferocious lyrical runs on the five-part suite that makes up the album's second half. In particular on "Peace and After," Tyner matches Trane's range of expression. The angelically floating "Dear Lord," a meditative pause in the album's center, holds true to the straddling of the line between modes of thinking and playing that define Transition, not quite as staid as the balladry of Trane's earlier hard bop days, but nowhere near the lucid dreaming that followed. Only nearing the end of "Vigil" does the quartet hint at the fury of complete freedom it would achieve later in the year on Sun Ship, or even more, provide a precursory look at terrain Coltrane would explore in duets with drummer Rashied Ali on Interstellar Space in 1967.
По всем вопросам пишите личное сообщение пользователю M0p94ok.
19:25
220
Нет комментариев. Ваш будет первым!