Вы используете незарегистрированную версию компонента "Вкладки"!

Поиск

(Avant-Garde Jazz) [CD] Raphael Imbert Project - Live au Tracteur - 2010, FLAC (tracks+.cue), lossless

(Avant-Garde Jazz) [CD] Raphael Imbert Project - Live au Tracteur - 2010, FLAC (tracks+.cue), lossless
Треклист:
Raphael Imbert Project - Live au Tracteur
Жанр: Avant-Garde Jazz
Носитель: CD
Страна-производитель диска (релиза): Франция
Год издания: 2010
Издатель (лейбл): Zig-Zag Territories
Номер по каталогу: ZZT110203
Аудиокодек: FLAC (*.flac)
Тип рипа: tracks+.cue
Битрейт аудио: lossless
Продолжительность: 53:29
Источник (релизер): tdelyon
Наличие сканов в содержимом раздачи: да
Треклист:
Usuite (Raphael Imbert)
01. Shared Temples (4:43)
02. Ecosystem of Citybirds (12:02)
03. Po Boy (11:22)
04. Omax at Lomax (11:38)
05. Jamin' with Jamin (13:44)
Состав:
Raphael Imbert - saxophones
Stephan Caracci - vibes
Joe Martin - bass
Gerald Cleaver - drums
Recorded at restaurant "Le tracteur", Argilliers on July 15-16, 2010.
 
Лог создания рипа
Exact Audio Copy V1.0 beta 3 from 29. August 2011
EAC extraction logfile from 19. March 2016, 22:55
Raphaël Imbert / Live au Tracteur
Used drive : hp DVD-RAM GHB0N Adapter: 0 ID: 0
Read mode : Secure
Utilize accurate stream : Yes
Defeat audio cache : Yes
Make use of C2 pointers : No
Read offset correction : 6
Overread into Lead-In and Lead-Out : No
Fill up missing offset samples with silence : Yes
Delete leading and trailing silent blocks : No
Null samples used in CRC calculations : Yes
Used interface : Native Win32 interface for Win NT & 2000
Gap handling : Appended to previous track
Used output format : User Defined Encoder
Selected bitrate : 1024 kBit/s
Quality : High
Add ID3 tag : No
Command line compressor : C:\Program Files (x86)\Exact Audio Copy\FLAC\FLAC.EXE
Additional command line options : -8 -V -T "ARTIST=%artist%" -T "TITLE=%title%" -T "ALBUM=%albumtitle%" -T "DATE=%year%" -T "TRACKNUMBER=%tracknr%" -T "TOTALTRACKS=%numtracks%" -T "GENRE=%genre%" -T "ALBUM ARTIST=%albumartist%" -T "ALBUMARTIST=%albumartist%" -T "COMMENT=EAC V1.0 beta 3, Secure Mode, Test & Copy, AccurateRip, FLAC -8" %source%
TOC of the extracted CD
Track | Start | Length | Start sector | End sector
---------------------------------------------------------
1 | 0:00.00 | 4:43.12 | 0 | 21236
2 | 4:43.12 | 12:01.69 | 21237 | 75380
3 | 16:45.06 | 11:22.35 | 75381 | 126565
4 | 28:07.41 | 11:37.62 | 126566 | 178902
5 | 39:45.28 | 13:44.01 | 178903 | 240703
Track 1
Filename C:\Users\Maison\Downloads\Rips\01 - Usuite , Shared Temples.wav
Pre-gap length 0:00:02.00
Peak level 100.0 %
Extraction speed 1.4 X
Track quality 99.9 %
Test CRC D6CDCCFB
Copy CRC D6CDCCFB
Accurately ripped (confidence 1) [F550DCD5] (AR v2)
Copy OK
Track 2
Filename C:\Users\Maison\Downloads\Rips\02 - Usuite , Ecosystem of citybirds.wav
Peak level 100.0 %
Extraction speed 2.4 X
Track quality 100.0 %
Test CRC D8BF02BA
Copy CRC D8BF02BA
Accurately ripped (confidence 1) [3C9EB854] (AR v2)
Copy OK
Track 3
Filename C:\Users\Maison\Downloads\Rips\03 - Usuite , Po Boy.wav
Peak level 100.0 %
Extraction speed 2.8 X
Track quality 100.0 %
Test CRC 9BAD7FFD
Copy CRC 9BAD7FFD
Accurately ripped (confidence 1) [B8E59A5E] (AR v2)
Copy OK
Track 4
Filename C:\Users\Maison\Downloads\Rips\04 - Usuite , Omax at Lomax.wav
Peak level 100.0 %
Extraction speed 2.9 X
Track quality 99.9 %
Test CRC 1BAE1362
Copy CRC 1BAE1362
Accurately ripped (confidence 1) [D2DF4801] (AR v2)
Copy OK
Track 5
Filename C:\Users\Maison\Downloads\Rips\05 - Usuite , Jamin' with Jamin.wav
Peak level 100.0 %
Extraction speed 3.3 X
Track quality 99.9 %
Test CRC A492AAB8
Copy CRC A492AAB8
Accurately ripped (confidence 1) [8FAAB66B] (AR v2)
Copy OK
All tracks accurately ripped
No errors occurred
End of status report
==== Log checksum 23B49ACFF827529DECD9F7BEBB355A2BE8385353CA5CD98234CD313F43173D0E ====
 
Содержание индексной карты (.CUE)
REM GENRE Jazz
REM DATE 2010
REM DISCID 450C8905
REM COMMENT "ExactAudioCopy v1.0b3"
PERFORMER "Raphael Imbert Project"
TITLE "Live au Tracteur"
FILE "01 - Usuite- Shared Temples.wav" WAVE
TRACK 01 AUDIO
TITLE "Usuite: Shared Temples"
PERFORMER "Raphael Imbert Project"
INDEX 01 00:00:00
FILE "02 - Usuite- Ecosystem of Citybirds.wav" WAVE
TRACK 02 AUDIO
TITLE "Usuite: Ecosystem of Citybirds"
PERFORMER "Raphael Imbert Project"
INDEX 01 00:00:00
FILE "03 - Usuite- Po Boy.wav" WAVE
TRACK 03 AUDIO
TITLE "Usuite: Po Boy"
PERFORMER "Raphael Imbert Project"
INDEX 01 00:00:00
FILE "04 - Usuite- Omax at Lomax.wav" WAVE
TRACK 04 AUDIO
TITLE "Usuite: Omax at Lomax"
PERFORMER "Raphael Imbert Project"
INDEX 01 00:00:00
FILE "05 - Usuite- Jamin' with Jamin.wav" WAVE
TRACK 05 AUDIO
TITLE "Usuite: Jamin' with Jamin"
PERFORMER "Raphael Imbert Project"
INDEX 01 00:00:00
 
Отчет CUETools
[CUETools log; Date: 21.03.2016 0:52:15; Version: 2.1.5]
[CTDB TOCID: PMEMhXrlYMPG9vYdujM_z2QqosY-] disk not present in database.
[AccurateRip ID: 0009cee7-002f8295-450c8905] found.
Track [ CRC | V2 ] Status
01 [348d6c79|f550dcd5] (1+1/2) Accurately ripped
02 [ce61f2ce|3c9eb854] (1+1/2) Accurately ripped
03 [71cc958c|b8e59a5e] (1+1/2) Accurately ripped
04 [37043862|d2df4801] (1+1/2) Accurately ripped
05 [2e27104b|8faab66b] (0+1/2) Accurately ripped
Track Peak [ CRC32 ] [W/O NULL] [ LOG ]
-- 100,0 [2CDB5A22] [5475A2B7]
01 100,0 [D6CDCCFB] [07F81B89] CRC32
02 100,0 [D8BF02BA] [D3DD43AC] CRC32
03 100,0 [9BAD7FFD] [C2802D8C] CRC32
04 100,0 [1BAE1362] [54B653C7] CRC32
05 100,0 [A492AAB8] [75A1D246] CRC32
 
Об альбоме (сборнике)
Deux ans après la parution d’un album plébiscité à juste titre (New York Project, Zig-Zag Territoires), Raphaël Imbert fait de nouveau appel aux bons services de Joe Martin et Gerald Cleaver, deux acteurs importants de la scène new-yorkaise, et ce entre les deux voyages qu’il a effectués aux États-Unis [1] dans le cadre d’Omax at Lomax’s.
Ce projet visait à cerner la modernité des pratiques chez les musiciens nord-américains et y définir - pour faire (très) court - la part de la tradition, ainsi que leur appétence pour les nouvelles technologies. Omax est un logiciel créé par des « savants fous » de l’IRCAM ; capable d’ingurgiter des techniques musicales, il garde aussi en mémoire les sons que l’on y enregistre pour les restituer de manière aléatoire mais pertinente en se basant sur lesdites techniques musicales. De fait, il peut donc dialoguer, improviser en temps réel avec les musiciens. Quant à Lomax, c’est une référence à Alan Lomax, ethnomusicologue célèbre pour son colossal travail de collectage aux États-Unis, aux Caraïbes et en Europe. De nombreux courants musicaux se sont essentiellement construits sur la transmission orale, notamment le blues et toutes les musiques qui en découlent plus ou moins directement, dont le jazz. Le travail de Lomax a consisté à enregistrer le plus possible de musiques et de chants afin de rendre leur évolution traçable.
Pour cet ambitieux projet qui s’inscrit dans le cadre des recherches d’Improtech, Raphaël Imbert est parti, saxophones sous le bras, échanger des mots puis des notes avec de nombreux musiciens à travers les États-Unis. Au moment d’enregistrer ce concert « à domicile », il revenait juste de ses pérégrinations dans les États du Sud, les doigts encore tout fumants d’avoir joué sans compter.
Cet élan s’entend dans ce Live au Tracteur, sur lequel le trio de New York Project devient quartet avec l’arrivée de Stéphan Caracci pour une suite composée par le saxophoniste, « Usuite », inspirée par son récent voyage. Divisée en cinq mouvements, elle accorde une très large place au jeu improvisé. Côté « hardware », une batterie, une contrebasse, un vibraphone, des saxophones. Côté « software », quatre cerveaux ayant engrangé ce qu’il faut de technique et un bagage né des écoutes, des rencontres et surtout des échanges. La machine fonctionne à merveille et cet « homme-axe » délivre une performance tout bonnement ahurissante, organique, tendue, pleine de swing et d’énergie. Le rapprochement avec Improtech ressort dans la conjugaison réussie entre tradition et modernité. Les formes sont résolument actuelles, avec de longues structures évolutives où vagabondages harmoniques et embardées rythmiques ouvrent un large champ d’expression aux musiciens. L’improvisation occupe une place de choix dans l’agencement même des morceaux, malgré un recours à quelques bonnes vieilles recettes, qui fonctionnent toujours aussi bien. Sur « Ecosystem Of Citybirds », l’intervention de Caracci après un chorus fiévreux d’Imbert n’est pas sans rappeler les disques Blue Note des années 50 (haute intensité, break général, puis le nouveau soliste, ici au vibraphone, relance la machine par une phrase bien sentie…). Cependant, ces astuces relèvent davantage du clin d’œil que de la facilité : l’expressivité est à son comble et l’énergie insufflée à chaque mouvement (y compris sur la seule ballade, « Po Boy ») ne laisse planer aucun doute à ce sujet. Le parcours respectif des musiciens non plus, d’ailleurs…
L’adjonction du vibraphone est une belle idée qui permet à la musique de Raphaël Imbert de tracer de nouveaux chemins. La présence de Caracci, son sens de la mélodie et de la couleur harmonique ajoutent au plaisir de retrouver la sonorité si personnelle du saxophoniste, son vibrato affirmé, son phrasé nerveux et ses développements ambitieux. Sa fantaisie, aussi, lorsqu’il joue simultanément de plusieurs saxophones pour évoquer Rahsaan Roland Kirk (« Ecosystem Of Citybirds ») ou lorsqu’il se fait bruitiste en introduction d’« Omax At Lomax » afin de restituer les fragments de phrases que l’on enregistre via le fameux logiciel… Tout au long de ce concert au Tracteur, il a pu s’appuyer sur la rythmique réactive et efficace des deux New-Yorkais, impliqués au point de se retrouver à dérouler leur drive puissant dans ce lieu inhabituel pour un bel instantané illustrant la vivacité et la qualité de ce groupe.
-- Olivier Acosta
По всем вопросам пишите личное сообщение пользователю M0p94ok.
19:25
189
Нет комментариев. Ваш будет первым!