Вы используете незарегистрированную версию компонента "Вкладки"!

Поиск

(Avant-Garde Jazz, Free Jazz) [CD] John Coltrane - Live At The Village Vanguard Again! (1966) - 2011, FLAC (tracks+.cue), lossless

(Avant-Garde Jazz, Free Jazz) [CD] John Coltrane - Live At The Village Vanguard Again! (1966) - 2011, FLAC (tracks+.cue), lossless
Треклист:
John Coltrane - Live At The Village Vanguard Again! (1966) Жанр: Avant-Garde Jazz, Free Jazz
Носитель: CD
Год издания: 2011
Издатель (лейбл): Impulse!/UMG/Verve Originals Series
Номер по каталогу: B0015827-2
Аудиокодек: FLAC (*.flac)
Тип рипа: tracks+.cue
Битрейт аудио: lossless
Продолжительность: 41:41
Rip by ruskaval
Наличие сканов в содержимом раздачи: да
Треклист:
01. Naima (15:11)
02. Introduction To My Favorite Things (6:08)
03. My Favorite Things (20:22)
Personnel:
John Coltrane - soprano saxophone, tenor saxophone, bass clarinet
Pharoah Sanders - tenor saxophone, flute
Alice Coltrane - piano
Jimmy Garrison - bass
Rashied Ali - drums
Emanuel Rahim - percussion
Rec.: live at The Village Vanguard, NYC, NY, May 28, 1966.
 
 
Лог создания рипа
Exact Audio Copy V1.1 from 23. June 2015
EAC extraction logfile from 13. April 2016, 22:12
John Coltrane / Live At The Village Vanguard Again!
Used drive : TSSTcorpCDDVDW SE-208DB Adapter: 1 ID: 0
Read mode : Secure
Utilize accurate stream : Yes
Defeat audio cache : Yes
Make use of C2 pointers : No
Read offset correction : 6
Overread into Lead-In and Lead-Out : No
Fill up missing offset samples with silence : Yes
Delete leading and trailing silent blocks : No
Null samples used in CRC calculations : Yes
Used interface : Native Win32 interface for Win NT & 2000
Gap handling : Appended to previous track
Used output format : User Defined Encoder
Selected bitrate : 1024 kBit/s
Quality : High
Add ID3 tag : No
Command line compressor : C:\Program Files (x86)\FLAC Frontend\tools\flac.exe
Additional command line options : -8 -V -T "ARTIST=%artist%" -T "TITLE=%title%" -T "ALBUM=%albumtitle%" -T "DATE=%year%" -T "TRACKNUMBER=%tracknr%" -T "TOTALTRACKS=%numtracks%" -T "GENRE=%genre%" -T "ALBUMARTIST=%albumartist%" -T "ALBUM ARTIST=%albumartist%" -T "COMMENT=EAC Secure Mode, Test & Copy, AccurateRip, FLAC -8" %source%
TOC of the extracted CD
Track | Start | Length | Start sector | End sector
---------------------------------------------------------
1 | 0:00.00 | 15:11.19 | 0 | 68343
2 | 15:11.19 | 6:07.73 | 68344 | 95941
3 | 21:19.17 | 20:21.46 | 95942 | 187562
Track 1
Filename D:\_EAC\John Coltrane - Live At The Village Vanguard Again! (1966) [FLAC] {Impulse!-Verve Originals rel 2011}\01 - Naima.wav
Pre-gap length 0:00:02.00
Peak level 100.0 %
Extraction speed 1.6 X
Track quality 100.0 %
Test CRC D7D06293
Copy CRC D7D06293
Accurately ripped (confidence 13) [CF35A280] (AR v2)
Copy OK
Track 2
Filename D:\_EAC\John Coltrane - Live At The Village Vanguard Again! (1966) [FLAC] {Impulse!-Verve Originals rel 2011}\02 - Introduction To My Favorite Things.wav
Peak level 80.3 %
Extraction speed 1.8 X
Track quality 100.0 %
Test CRC 2581B56C
Copy CRC 2581B56C
Accurately ripped (confidence 13) [937B9A8D] (AR v2)
Copy OK
Track 3
Filename D:\_EAC\John Coltrane - Live At The Village Vanguard Again! (1966) [FLAC] {Impulse!-Verve Originals rel 2011}\03 - My Favorite Things.wav
Peak level 100.0 %
Extraction speed 2.3 X
Track quality 100.0 %
Test CRC F9038974
Copy CRC F9038974
Accurately ripped (confidence 13) [86B68D85] (AR v2)
Copy OK
All tracks accurately ripped
No errors occurred
End of status report
==== Log checksum A905E304C4DA7D2F31FB10313037595921D5FD8ED745A2D644D01B5C5F99FAD3 ====
 
Содержание индексной карты (.CUE)
REM GENRE Jazz
REM DATE 1966
REM DISCID 1B09C403
REM COMMENT "ExactAudioCopy v1.1"
PERFORMER "John Coltrane"
TITLE "Live At The Village Vanguard Again!"
FILE "01 - Naima.wav" WAVE
TRACK 01 AUDIO
TITLE "Naima"
PERFORMER "John Coltrane"
FLAGS DCP
INDEX 01 00:00:00
FILE "02 - Introduction To My Favorite Things.wav" WAVE
TRACK 02 AUDIO
TITLE "Introduction To My Favorite Things"
PERFORMER "John Coltrane"
FLAGS DCP
INDEX 01 00:00:00
FILE "03 - My Favorite Things.wav" WAVE
TRACK 03 AUDIO
TITLE "My Favorite Things"
PERFORMER "John Coltrane"
FLAGS DCP
INDEX 01 00:00:00
 
Лог проверки качества
[CUETools log; Date: 14.04.2016 16:26:10; Version: 2.0.9]
[CTDB TOCID: 1OuMGGMDDnEGnHiVcXHf3dFEIYM-] found.
[ CTDBID ] Status
[605c4ff2] (16/17) Accurately ripped
[e0e2ddd0] (01/17) NotFound
[AccurateRip ID: 00055e69-0011ecef-1b09c403] found.
Track [ CRC ] Status
01 [3315b841] (04/18) Accurately ripped
02 [abcb7d30] (04/18) Accurately ripped
03 [18b852ed] (04/18) Accurately ripped
Track Peak [ CRC32 ] [W/O NULL] [ LOG ]
-- 100,0 [FC978499] [87176FA2]
01 100,0 [D7D06293] [4264DE1A] CRC32
02 80,3 [2581B56C] [41D04908] CRC32
03 100,0 [F9038974] [AD9E920F] CRC32
По всем вопросам пишите личное сообщение пользователю M0p94ok.
19:43
181
Нет комментариев. Ваш будет первым!