Поиск

(Avant-garde Jazz, Free Jazz) [CD] John Cage, Sun Ra - John Cage Meets Sun Ra (The Complete Concert, June 8, 1986, Coney Island, NY) - 1987 (Reissue 2016), FLAC (tracks+.cue), lossless

(Avant-garde Jazz, Free Jazz) [CD] John Cage, Sun Ra - John Cage Meets Sun Ra (The Complete Concert, June 8, 1986, Coney Island, NY) - 1987 (Reissue 2016), FLAC (tracks+.cue), lossless
John Cage, Sun Ra / John Cage Meets Sun Ra (The Complete Concert, June 8, 1986, Coney Island, NY)
Жанр: Avant-garde Jazz, Free Jazz
Носитель: CD
Страна-производитель диска (релиза): USA
Год издания: 1987 (Reissue 2016)
Издатель (лейбл): Modern Harmonic
Номер по каталогу: MHCD-20
Страна исполнителя (группы): USA
Аудиокодек: FLAC (*.flac)
Тип рипа: tracks+.cue
Битрейт аудио: lossless
Продолжительность: 1:10:01
Источник (релизер): скачано из сети (рип друга)
Наличие сканов в содержимом раздачи: нет
Треклист:
01. Rick Russo – Rick Russo Introduction (1:11)
02. Marshall Allen – Untitled Wind Synthesizer Intro (1:02)
03. Sun Ra – Untitled Keyboard Solo 1 (6:44)
04. John Cage – Empty Words (Vocal Solo) (2:40)
05. John Cage – Empty Words (Silent Solo) (3:03)
06. John Cage – Empty Words (Vocal Solo) (4:46)
07. Sun Ra – Untitled Keyboard Solo 2 (2:54)
08. Sun Ra – We Hold This Myth To Be Potential (2:41)
09. Sun Ra – The Damned Air (2:51)
10. John Cage – Empty Words (Vocal Solo) (1:30)
11. John Cage – Empty Words (Silent Solo) (2:37)
12. John Cage – Empty Words (Vocal Solo) (4:01)
13. Sun Ra – The Living Parable (0:37)
14. Sun Ra – This Is The Space Age (1:25)
15. Sun Ra – Untitled Keyboard Solo 3 (6:56)
16. Sun Ra featuring June Tyson – Enlightenment (2:28)
17. Sun Ra – Untitled Keyboard Solo 4 (2:03)
18. John Cage & Sun Ra – Silent Duet (2:14)
19. John Cage & Sun Ra – Empty Words & Keyboard (5:24)
20. John Cage & Sun Ra – Silent Duet 2 (2:47)
21. Sun Ra – Untitled Keyboard Solo 5 (10:05)
 
О релизе
John Cage Meets Sun Ra: The Complete Concert (Modern Harmonic, 2016). Возможно, главное переиздание этого лета: полная запись исторической встречи Джона Кейджа и Сан Ра 8 июня 1986 года в Coney Island Museum в Нью-Йорке. Оригинальное виниловое издание 1987 года на Meltdown Records c сокращённой версией концерта на одиночном LP - большой раритет, за который просят сумму, близкую к четырёхзначной. Мероприятие было организовано с целью раскрутки упомянутой новой фирмы грамзаписи. Джон Ф. Швед в книжке Space is the Place: The Lives and Times of Sun Ra (1997) описывает его так: Sun Ra and Cage talked briefly beforehand, but most of what they had to say was not heard by others. Ra entered first, preceded by dancer Ted Thomas sanctifying the space before them with a censer; and then Marshall Allen playing a fanfare on a wind synthesizer, followed by John Cage. Sun Ra, dressed in a purple tunic with silver foils, seated himself behind a Yamaha DX-7 keyboard and played softly for a few minutes, while Thomas danced about with tendrils of incense trailing. Then Cage, dressed in denim as usual, made soft mouth noises for a few minutes. And so it went, back and forth. Only once, for the briefest of seconds, did they play together, when Sonny added some soft bell tones behind Cage, but then quit, perhaps feeling a draft, sensing that Cage was somewhere else. Then Sun Ra read from the his poetry, accompanying himself on keyboard, and June Tyson sand "Enlightenment" and danced with two male dancers and it was over.Afterwards, Cage told Sun Ra that a writer friend had said to him that if he wanted to take another step in music and didn't want to be behind the times he ought to listen to Sun Ra. Sun Ra smiled, and like a straight man in a comedy team said, "I've been in the same position myself." Some time later when someone asked Cage about playing with Sun ra he corrected them: they had not played together..
This live album documents the meeting of two avant-garde legends, but it is not exactly a "super duo." The curious chemistry these two share is subtler and possibly more rewarding than that.
John Cage was a quotable artist. On the subject of albums, he once remarked that “records ruin the landscape.” Elsewhere, in a treatise collected in his 1961 book Silence, the composer offered some opinions about jazz. The genre “derives from serious music,” he wrote, “and when serious music derives from it, the situation becomes rather silly.” Given those harsh judgments, it makes sense to venture an opening question about Cage’s one-off appearance alongside swing-and-improv icon Sun Ra. If Cage himself thought jazz unsuited for “serious” contexts and recordings lame, why should this document of their 1986 shared bill be anything other than a curiosity?
John Cage Meets Sun Ra: The Complete Concert has an answer for that wariness—and the album gradually emerges as something greater than a footnote. That’s not because the pairing results in an “avant super duo.” As it happens, the two artists tend to trade off soloing, and only play together audibly at one point during this hour-plus set, recorded at Coney Island. Yet despite the arms-length embrace, the overall concert has a surprisingly seamless quality.
The entire show, released here in full for the first time, shows how Cage’s own performances and improvisations were capable of more supple surprise than his most attention-grabbing pronouncements. The composer of 4’33” talked a lot about his ideas—in particular his insight that there is “no such thing as silence”—but the spare, tender nature of his wordless vocal solos here creates a stronger impact than many theoretical explanations. This newly complete representation of the show also draws strength from the flexibility and invention of Ra’s playing.
Ra focuses on one synth here—the then-new Yamaha DX7. Though the instrument’s timbral range is limited, Ra manages to whip up a wealth of approaches during his portions of the show. “Untitled Keyboard Solo 1” opens with some sci-fi movie tones; eventually, Ra accelerates into sprightly figures, before steering into dense chords and drones. His third untitled solo makes psychedelic use of the DX7’s effects, with chords sounding sampled and spun in real time.
Ra’s solos can be sequenced into a compelling EP on their own. But it’s his ability to meet Cage more than halfway that helps hold the entire gig together. He provides the sparest wisps of accompaniment imaginable during his one collaboration with Cage, on the track “Empty Words and Keyboard.” And on tracks like “We Hold This Myth to Be Potential” and “The Damned Air,” Ra provides poetry recitations to go with his playing. His voice is off-mic—the physical editions of the album helpfully give his texts in full—but the way this recording limitation can focus a listener’s attention works perfectly next to Cage’s contemplative silences and delicate mumblings. Likewise, a short duet with singer and frequent Ra collaborator June Tyson is beset by amplification problems, though the noise-damaged result works, in context.
John Cage Meets Sun Ra: The Complete Concert isn’t an ideal entry point into either artist’s catalog. For Ra, you’d first want to explore early albums such as Jazz in Silhouette and Angels and Demons at Play (as well as gonzo triumphs like Other Planes of There). Cage’s key works have been interpreted by elite classical performers like Joseph Kubera and Third Coast Percussion. But this minor addition to both oeuvres has a quietly mind-blowing feel—particularly since another meeting between Cage and a jazz luminary, Joseph Jarman, was never documented. Instead of ruining the landscape, a recording like this one contributes to it. By contradicting one of Cage's rhetorical excesses, the album gently improves our understanding of the valid connection between divergent careers in American experimental music.
(Seth Colter Walls, pitchfork.com)
 
Отчёт EAC
Exact Audio Copy V1.1 from 23. June 2015
EAC extraction logfile from 22. July 2016, 14:41
John Cage & Sun Ra / John Cage Meets Sun Ra: The Complete Concert, June 8th 1986, Coney Island NY
Used drive : ATAPI iHBS112 2 Adapter: 1 ID: 0
Read mode : Secure
Utilize accurate stream : Yes
Defeat audio cache : Yes
Make use of C2 pointers : No
Read offset correction : 6
Overread into Lead-In and Lead-Out : No
Fill up missing offset samples with silence : Yes
Delete leading and trailing silent blocks : No
Null samples used in CRC calculations : Yes
Used interface : Native Win32 interface for Win NT & 2000
Gap handling : Appended to previous track
Used output format : User Defined Encoder
Selected bitrate : 1024 kBit/s
Quality : High
Add ID3 tag : No
Command line compressor : C:\Program Files (x86)\Exact Audio Copy\FLAC\FLAC.EXE
Additional command line options : -8 -e -V -T "ARTIST=%artist%" -T "TITLE=%title%" -T "ALBUM=%albumtitle%" -T "DATE=%year%" -T "TRACKNUMBER=%tracknr%" -T "GENRE=%genre%" -T "PERFORMER=%albuminterpret%" -T "COMPOSER=%composer%" %haslyrics%--tag-from-file=LYRICS="%lyricsfile%"%haslyrics% -T "ALBUMARTIST=%albumartist%" -T "DISCNUMBER=%cdnumber%" -T "TOTALDISCS=%totalcds%" -T "TOTALTRACKS=%numtracks%" -T "COMMENT=%comment%" %source% -o %dest%
TOC of the extracted CD
Track | Start | Length | Start sector | End sector
---------------------------------------------------------
1 | 0:00.00 | 1:11.17 | 0 | 5341
2 | 1:11.17 | 1:02.24 | 5342 | 10015
3 | 2:13.41 | 6:43.36 | 10016 | 40276
4 | 8:57.02 | 2:39.63 | 40277 | 52264
5 | 11:36.65 | 3:03.44 | 52265 | 66033
6 | 14:40.34 | 4:46.03 | 66034 | 87486
7 | 19:26.37 | 2:54.07 | 87487 | 100543
8 | 22:20.44 | 2:41.10 | 100544 | 112628
9 | 25:01.54 | 2:51.15 | 112629 | 125468
10 | 27:52.69 | 1:29.34 | 125469 | 132177
11 | 29:22.28 | 2:37.23 | 132178 | 143975
12 | 31:59.51 | 4:01.05 | 143976 | 162055
13 | 36:00.56 | 0:37.27 | 162056 | 164857
14 | 36:38.08 | 1:25.03 | 164858 | 171235
15 | 38:03.11 | 6:55.32 | 171236 | 202392
16 | 44:58.43 | 2:28.31 | 202393 | 213523
17 | 47:26.74 | 2:03.25 | 213524 | 222773
18 | 49:30.24 | 2:14.33 | 222774 | 232856
19 | 51:44.57 | 5:23.47 | 232857 | 257128
20 | 57:08.29 | 2:47.07 | 257129 | 269660
21 | 59:55.36 | 10:05.13 | 269661 | 315048
Track 1
Filename H:\Rips\Sun Ra & John Cage - John Cage Meets Sun Ra [CD]\01 - Rick Russo Introduction.wav
Pre-gap length 0:00:02.00
Peak level 98.8 %
Extraction speed 1.5 X
Track quality 100.0 %
Test CRC C89D40EE
Copy CRC C89D40EE
Track not present in AccurateRip database
Copy OK
Track 2
Filename H:\Rips\Sun Ra & John Cage - John Cage Meets Sun Ra [CD]\02 - Marshall Allen - Untitled Wind Synthesizer intro.wav
Peak level 98.8 %
Extraction speed 1.5 X
Track quality 100.0 %
Test CRC DDEB6F41
Copy CRC DDEB6F41
Track not present in AccurateRip database
Copy OK
Track 3
Filename H:\Rips\Sun Ra & John Cage - John Cage Meets Sun Ra [CD]\03 - Sun Ra- Untitled Keyboard Solo 1.wav
Peak level 98.8 %
Extraction speed 2.4 X
Track quality 100.0 %
Test CRC E1D0BC1B
Copy CRC E1D0BC1B
Track not present in AccurateRip database
Copy OK
Track 4
Filename H:\Rips\Sun Ra & John Cage - John Cage Meets Sun Ra [CD]\04 - John Cage - Empty Words (Vocal Solo).wav
Peak level 98.8 %
Extraction speed 2.4 X
Track quality 100.0 %
Test CRC 104B7E9F
Copy CRC 104B7E9F
Track not present in AccurateRip database
Copy OK
Track 5
Filename H:\Rips\Sun Ra & John Cage - John Cage Meets Sun Ra [CD]\05 - John Cage - Empty Words (Silent Solo).wav
Peak level 3.1 %
Extraction speed 1.8 X
Track quality 99.9 %
Test CRC 82D449DA
Copy CRC 82D449DA
Track not present in AccurateRip database
Copy OK
Track 6
Filename H:\Rips\Sun Ra & John Cage - John Cage Meets Sun Ra [CD]\06 - John Cage - Empty Words (Vocal Solo).wav
Peak level 98.8 %
Extraction speed 2.9 X
Track quality 100.0 %
Test CRC CC0DC875
Copy CRC CC0DC875
Track not present in AccurateRip database
Copy OK
Track 7
Filename H:\Rips\Sun Ra & John Cage - John Cage Meets Sun Ra [CD]\07 - Sun Ra- Untitled Keyboard Solo 2.wav
Peak level 98.8 %
Extraction speed 2.8 X
Track quality 100.0 %
Test CRC A76FFD51
Copy CRC A76FFD51
Track not present in AccurateRip database
Copy OK
Track 8
Filename H:\Rips\Sun Ra & John Cage - John Cage Meets Sun Ra [CD]\08 - Sun Ra - We Hold This Myth to Be Potential.wav
Peak level 97.7 %
Extraction speed 2.9 X
Track quality 100.0 %
Test CRC F0024FAC
Copy CRC F0024FAC
Track not present in AccurateRip database
Copy OK
Track 9
Filename H:\Rips\Sun Ra & John Cage - John Cage Meets Sun Ra [CD]\09 - Sun Ra - The Damned Air.wav
Peak level 92.0 %
Extraction speed 3.0 X
Track quality 100.0 %
Test CRC 0CCAE1E5
Copy CRC 0CCAE1E5
Track not present in AccurateRip database
Copy OK
Track 10
Filename H:\Rips\Sun Ra & John Cage - John Cage Meets Sun Ra [CD]\10 - John Cage - Empty Words (Vocal Solo).wav
Peak level 98.8 %
Extraction speed 2.6 X
Track quality 100.0 %
Test CRC B16AE98C
Copy CRC B16AE98C
Track not present in AccurateRip database
Copy OK
Track 11
Filename H:\Rips\Sun Ra & John Cage - John Cage Meets Sun Ra [CD]\11 - John Cage - Empty Words (Silent Solo).wav
Peak level 1.7 %
Extraction speed 3.1 X
Track quality 100.0 %
Test CRC 98AEAE07
Copy CRC 98AEAE07
Track not present in AccurateRip database
Copy OK
Track 12
Filename H:\Rips\Sun Ra & John Cage - John Cage Meets Sun Ra [CD]\12 - John Cage - Empty Words (Vocal Solo).wav
Peak level 98.8 %
Extraction speed 3.4 X
Track quality 100.0 %
Test CRC D59D4308
Copy CRC D59D4308
Track not present in AccurateRip database
Copy OK
Track 13
Filename H:\Rips\Sun Ra & John Cage - John Cage Meets Sun Ra [CD]\13 - Sun Ra - The Living Parable.wav
Peak level 55.7 %
Extraction speed 2.0 X
Track quality 100.0 %
Test CRC F1AFCFAC
Copy CRC F1AFCFAC
Track not present in AccurateRip database
Copy OK
Track 14
Filename H:\Rips\Sun Ra & John Cage - John Cage Meets Sun Ra [CD]\14 - Sun Ra - This is The Space Age.wav
Peak level 98.8 %
Extraction speed 2.9 X
Track quality 100.0 %
Test CRC 060FDA10
Copy CRC 060FDA10
Track not present in AccurateRip database
Copy OK
Track 15
Filename H:\Rips\Sun Ra & John Cage - John Cage Meets Sun Ra [CD]\15 - Sun Ra - Untitled Keyboard Solo 3.wav
Peak level 94.9 %
Extraction speed 3.9 X
Track quality 100.0 %
Test CRC C4004026
Copy CRC C4004026
Track not present in AccurateRip database
Copy OK
Track 16
Filename H:\Rips\Sun Ra & John Cage - John Cage Meets Sun Ra [CD]\16 - Enlightenment (featuring June Tyson).wav
Peak level 96.7 %
Extraction speed 2.3 X
Track quality 99.9 %
Test CRC 8528448C
Copy CRC 8528448C
Track not present in AccurateRip database
Copy OK
Track 17
Filename H:\Rips\Sun Ra & John Cage - John Cage Meets Sun Ra [CD]\17 - Sun Ra - Untitled Keyboard Solo 4.wav
Peak level 98.8 %
Extraction speed 3.5 X
Track quality 100.0 %
Test CRC 39DDA9FF
Copy CRC 39DDA9FF
Track not present in AccurateRip database
Copy OK
Track 18
Filename H:\Rips\Sun Ra & John Cage - John Cage Meets Sun Ra [CD]\18 - John Cage and Sun Ra - Silent Duel.wav
Peak level 4.5 %
Extraction speed 2.3 X
Track quality 99.9 %
Test CRC E5F65016
Copy CRC E5F65016
Track not present in AccurateRip database
Copy OK
Track 19
Filename H:\Rips\Sun Ra & John Cage - John Cage Meets Sun Ra [CD]\19 - John Cage and Sun Ra - Empty Words and Keyboard.wav
Peak level 98.8 %
Extraction speed 4.2 X
Track quality 100.0 %
Test CRC F32F1883
Copy CRC F32F1883
Track not present in AccurateRip database
Copy OK
Track 20
Filename H:\Rips\Sun Ra & John Cage - John Cage Meets Sun Ra [CD]\20 - John Cage and Sun Ra - Silent Duel 2.wav
Peak level 44.0 %
Extraction speed 3.9 X
Track quality 100.0 %
Test CRC 050BE289
Copy CRC 050BE289
Track not present in AccurateRip database
Copy OK
Track 21
Filename H:\Rips\Sun Ra & John Cage - John Cage Meets Sun Ra [CD]\21 - Sun Ra - Untitled Keyboard Solo 5.wav
Peak level 98.8 %
Extraction speed 4.7 X
Track quality 100.0 %
Test CRC 5957159C
Copy CRC 5957159C
Track not present in AccurateRip database
Copy OK
None of the tracks are present in the AccurateRip database
No errors occurred
End of status report
---- CUETools DB Plugin V2.1.6
[CTDB TOCID: IyREB1L7_vwrt_n3YDUWDwg6gLc-] found
Submit result: already submitted
Track | CTDB Status
1 | (3/3) Accurately ripped
2 | (3/3) Accurately ripped
3 | (3/3) Accurately ripped
4 | (3/3) Accurately ripped
5 | (3/3) Accurately ripped
6 | (3/3) Accurately ripped
7 | (3/3) Accurately ripped
8 | (3/3) Accurately ripped
9 | (3/3) Accurately ripped
10 | (3/3) Accurately ripped
11 | (3/3) Accurately ripped
12 | (3/3) Accurately ripped
13 | (3/3) Accurately ripped
14 | (3/3) Accurately ripped
15 | (3/3) Accurately ripped
16 | (3/3) Accurately ripped
17 | (3/3) Accurately ripped
18 | (3/3) Accurately ripped
19 | (3/3) Accurately ripped
20 | (3/3) Accurately ripped
21 | (3/3) Accurately ripped
==== Log checksum DAC9DE56A2514E8549CD7F298364AC67CC6F16227E986DEEA011FA96D5C52522 ====
------------------------------------------------------------
Exact Audio Copy V1.1 from 23. June 2015
EAC extraction logfile from 22. July 2016, 14:41
John Cage & Sun Ra / John Cage Meets Sun Ra: The Complete Concert, June 8th 1986, Coney Island NY
Used drive : ATAPI iHBS112 2 Adapter: 1 ID: 0
Read mode : Secure
Utilize accurate stream : Yes
Defeat audio cache : Yes
Make use of C2 pointers : No
Read offset correction : 6
Overread into Lead-In and Lead-Out : No
Fill up missing offset samples with silence : Yes
Delete leading and trailing silent blocks : No
Null samples used in CRC calculations : Yes
Used interface : Native Win32 interface for Win NT & 2000
Gap handling : Appended to previous track
Used output format : User Defined Encoder
Selected bitrate : 1024 kBit/s
Quality : High
Add ID3 tag : No
Command line compressor : C:\Program Files (x86)\Exact Audio Copy\FLAC\FLAC.EXE
Additional command line options : -8 -e -V -T "ARTIST=%artist%" -T "TITLE=%title%" -T "ALBUM=%albumtitle%" -T "DATE=%year%" -T "TRACKNUMBER=%tracknr%" -T "GENRE=%genre%" -T "PERFORMER=%albuminterpret%" -T "COMPOSER=%composer%" %haslyrics%--tag-from-file=LYRICS="%lyricsfile%"%haslyrics% -T "ALBUMARTIST=%albumartist%" -T "DISCNUMBER=%cdnumber%" -T "TOTALDISCS=%totalcds%" -T "TOTALTRACKS=%numtracks%" -T "COMMENT=%comment%" %source% -o %dest%
TOC of the extracted CD
Track | Start | Length | Start sector | End sector
---------------------------------------------------------
1 | 0:00.00 | 1:11.17 | 0 | 5341
2 | 1:11.17 | 1:02.24 | 5342 | 10015
3 | 2:13.41 | 6:43.36 | 10016 | 40276
4 | 8:57.02 | 2:39.63 | 40277 | 52264
5 | 11:36.65 | 3:03.44 | 52265 | 66033
6 | 14:40.34 | 4:46.03 | 66034 | 87486
7 | 19:26.37 | 2:54.07 | 87487 | 100543
8 | 22:20.44 | 2:41.10 | 100544 | 112628
9 | 25:01.54 | 2:51.15 | 112629 | 125468
10 | 27:52.69 | 1:29.34 | 125469 | 132177
11 | 29:22.28 | 2:37.23 | 132178 | 143975
12 | 31:59.51 | 4:01.05 | 143976 | 162055
13 | 36:00.56 | 0:37.27 | 162056 | 164857
14 | 36:38.08 | 1:25.03 | 164858 | 171235
15 | 38:03.11 | 6:55.32 | 171236 | 202392
16 | 44:58.43 | 2:28.31 | 202393 | 213523
17 | 47:26.74 | 2:03.25 | 213524 | 222773
18 | 49:30.24 | 2:14.33 | 222774 | 232856
19 | 51:44.57 | 5:23.47 | 232857 | 257128
20 | 57:08.29 | 2:47.07 | 257129 | 269660
21 | 59:55.36 | 10:05.13 | 269661 | 315048
Track 1
Filename H:\Rips\Sun Ra & John Cage - John Cage Meets Sun Ra [CD]\01 - Rick Russo Introduction.wav
Pre-gap length 0:00:02.00
Peak level 98.8 %
Extraction speed 1.5 X
Track quality 100.0 %
Test CRC C89D40EE
Copy CRC C89D40EE
Track not present in AccurateRip database
Copy OK
Track 2
Filename H:\Rips\Sun Ra & John Cage - John Cage Meets Sun Ra [CD]\02 - Marshall Allen - Untitled Wind Synthesizer intro.wav
Peak level 98.8 %
Extraction speed 1.5 X
Track quality 100.0 %
Test CRC DDEB6F41
Copy CRC DDEB6F41
Track not present in AccurateRip database
Copy OK
Track 3
Filename H:\Rips\Sun Ra & John Cage - John Cage Meets Sun Ra [CD]\03 - Sun Ra- Untitled Keyboard Solo 1.wav
Peak level 98.8 %
Extraction speed 2.4 X
Track quality 100.0 %
Test CRC E1D0BC1B
Copy CRC E1D0BC1B
Track not present in AccurateRip database
Copy OK
Track 4
Filename H:\Rips\Sun Ra & John Cage - John Cage Meets Sun Ra [CD]\04 - John Cage - Empty Words (Vocal Solo).wav
Peak level 98.8 %
Extraction speed 2.4 X
Track quality 100.0 %
Test CRC 104B7E9F
Copy CRC 104B7E9F
Track not present in AccurateRip database
Copy OK
Track 5
Filename H:\Rips\Sun Ra & John Cage - John Cage Meets Sun Ra [CD]\05 - John Cage - Empty Words (Silent Solo).wav
Peak level 3.1 %
Extraction speed 1.8 X
Track quality 99.9 %
Test CRC 82D449DA
Copy CRC 82D449DA
Track not present in AccurateRip database
Copy OK
Track 6
Filename H:\Rips\Sun Ra & John Cage - John Cage Meets Sun Ra [CD]\06 - John Cage - Empty Words (Vocal Solo).wav
Peak level 98.8 %
Extraction speed 2.9 X
Track quality 100.0 %
Test CRC CC0DC875
Copy CRC CC0DC875
Track not present in AccurateRip database
Copy OK
Track 7
Filename H:\Rips\Sun Ra & John Cage - John Cage Meets Sun Ra [CD]\07 - Sun Ra- Untitled Keyboard Solo 2.wav
Peak level 98.8 %
Extraction speed 2.8 X
Track quality 100.0 %
Test CRC A76FFD51
Copy CRC A76FFD51
Track not present in AccurateRip database
Copy OK
Track 8
Filename H:\Rips\Sun Ra & John Cage - John Cage Meets Sun Ra [CD]\08 - Sun Ra - We Hold This Myth to Be Potential.wav
Peak level 97.7 %
Extraction speed 2.9 X
Track quality 100.0 %
Test CRC F0024FAC
Copy CRC F0024FAC
Track not present in AccurateRip database
Copy OK
Track 9
Filename H:\Rips\Sun Ra & John Cage - John Cage Meets Sun Ra [CD]\09 - Sun Ra - The Damned Air.wav
Peak level 92.0 %
Extraction speed 3.0 X
Track quality 100.0 %
Test CRC 0CCAE1E5
Copy CRC 0CCAE1E5
Track not present in AccurateRip database
Copy OK
Track 10
Filename H:\Rips\Sun Ra & John Cage - John Cage Meets Sun Ra [CD]\10 - John Cage - Empty Words (Vocal Solo).wav
Peak level 98.8 %
Extraction speed 2.6 X
Track quality 100.0 %
Test CRC B16AE98C
Copy CRC B16AE98C
Track not present in AccurateRip database
Copy OK
Track 11
Filename H:\Rips\Sun Ra & John Cage - John Cage Meets Sun Ra [CD]\11 - John Cage - Empty Words (Silent Solo).wav
Peak level 1.7 %
Extraction speed 3.1 X
Track quality 100.0 %
Test CRC 98AEAE07
Copy CRC 98AEAE07
Track not present in AccurateRip database
Copy OK
Track 12
Filename H:\Rips\Sun Ra & John Cage - John Cage Meets Sun Ra [CD]\12 - John Cage - Empty Words (Vocal Solo).wav
Peak level 98.8 %
Extraction speed 3.4 X
Track quality 100.0 %
Test CRC D59D4308
Copy CRC D59D4308
Track not present in AccurateRip database
Copy OK
Track 13
Filename H:\Rips\Sun Ra & John Cage - John Cage Meets Sun Ra [CD]\13 - Sun Ra - The Living Parable.wav
Peak level 55.7 %
Extraction speed 2.0 X
Track quality 100.0 %
Test CRC F1AFCFAC
Copy CRC F1AFCFAC
Track not present in AccurateRip database
Copy OK
Track 14
Filename H:\Rips\Sun Ra & John Cage - John Cage Meets Sun Ra [CD]\14 - Sun Ra - This is The Space Age.wav
Peak level 98.8 %
Extraction speed 2.9 X
Track quality 100.0 %
Test CRC 060FDA10
Copy CRC 060FDA10
Track not present in AccurateRip database
Copy OK
Track 15
Filename H:\Rips\Sun Ra & John Cage - John Cage Meets Sun Ra [CD]\15 - Sun Ra - Untitled Keyboard Solo 3.wav
Peak level 94.9 %
Extraction speed 3.9 X
Track quality 100.0 %
Test CRC C4004026
Copy CRC C4004026
Track not present in AccurateRip database
Copy OK
Track 16
Filename H:\Rips\Sun Ra & John Cage - John Cage Meets Sun Ra [CD]\16 - Enlightenment (featuring June Tyson).wav
Peak level 96.7 %
Extraction speed 2.3 X
Track quality 99.9 %
Test CRC 8528448C
Copy CRC 8528448C
Track not present in AccurateRip database
Copy OK
Track 17
Filename H:\Rips\Sun Ra & John Cage - John Cage Meets Sun Ra [CD]\17 - Sun Ra - Untitled Keyboard Solo 4.wav
Peak level 98.8 %
Extraction speed 3.5 X
Track quality 100.0 %
Test CRC 39DDA9FF
Copy CRC 39DDA9FF
Track not present in AccurateRip database
Copy OK
Track 18
Filename H:\Rips\Sun Ra & John Cage - John Cage Meets Sun Ra [CD]\18 - John Cage and Sun Ra - Silent Duel.wav
Peak level 4.5 %
Extraction speed 2.3 X
Track quality 99.9 %
Test CRC E5F65016
Copy CRC E5F65016
Track not present in AccurateRip database
Copy OK
Track 19
Filename H:\Rips\Sun Ra & John Cage - John Cage Meets Sun Ra [CD]\19 - John Cage and Sun Ra - Empty Words and Keyboard.wav
Peak level 98.8 %
Extraction speed 4.2 X
Track quality 100.0 %
Test CRC F32F1883
Copy CRC F32F1883
Track not present in AccurateRip database
Copy OK
Track 20
Filename H:\Rips\Sun Ra & John Cage - John Cage Meets Sun Ra [CD]\20 - John Cage and Sun Ra - Silent Duel 2.wav
Peak level 44.0 %
Extraction speed 3.9 X
Track quality 100.0 %
Test CRC 050BE289
Copy CRC 050BE289
Track not present in AccurateRip database
Copy OK
Track 21
Filename H:\Rips\Sun Ra & John Cage - John Cage Meets Sun Ra [CD]\21 - Sun Ra - Untitled Keyboard Solo 5.wav
Peak level 98.8 %
Extraction speed 4.7 X
Track quality 100.0 %
Test CRC 5957159C
Copy CRC 5957159C
Track not present in AccurateRip database
Copy OK
None of the tracks are present in the AccurateRip database
No errors occurred
End of status report
---- CUETools DB Plugin V2.1.6
[CTDB TOCID: IyREB1L7_vwrt_n3YDUWDwg6gLc-] found
Submit result: already submitted
Track | CTDB Status
1 | (3/3) Accurately ripped
2 | (3/3) Accurately ripped
3 | (3/3) Accurately ripped
4 | (3/3) Accurately ripped
5 | (3/3) Accurately ripped
6 | (3/3) Accurately ripped
7 | (3/3) Accurately ripped
8 | (3/3) Accurately ripped
9 | (3/3) Accurately ripped
10 | (3/3) Accurately ripped
11 | (3/3) Accurately ripped
12 | (3/3) Accurately ripped
13 | (3/3) Accurately ripped
14 | (3/3) Accurately ripped
15 | (3/3) Accurately ripped
16 | (3/3) Accurately ripped
17 | (3/3) Accurately ripped
18 | (3/3) Accurately ripped
19 | (3/3) Accurately ripped
20 | (3/3) Accurately ripped
21 | (3/3) Accurately ripped
==== Log checksum DAC9DE56A2514E8549CD7F298364AC67CC6F16227E986DEEA011FA96D5C52522 ====
 
Содержание индексной карты (.CUE)
REM GENRE Jazz
REM DATE 1987
REM DISCID 23106815
REM COMMENT "ExactAudioCopy v1.1"
PERFORMER "John Cage & Sun Ra"
TITLE "John Cage Meets Sun Ra: The Complete Concert, June 8th 1986, Coney Island NY"
FILE "01 - Rick Russo Introduction.wav" WAVE
TRACK 01 AUDIO
TITLE "Rick Russo Introduction"
PERFORMER "John Cage & Sun Ra"
FLAGS DCP
INDEX 01 00:00:00
FILE "02 - Marshall Allen - Untitled Wind Synthesizer intro.wav" WAVE
TRACK 02 AUDIO
TITLE "Marshall Allen - Untitled Wind Synthesizer intro"
PERFORMER "John Cage & Sun Ra"
FLAGS DCP
INDEX 01 00:00:00
FILE "03 - Sun Ra- Untitled Keyboard Solo 1.wav" WAVE
TRACK 03 AUDIO
TITLE "Sun Ra- Untitled Keyboard Solo 1"
PERFORMER "John Cage & Sun Ra"
FLAGS DCP
INDEX 01 00:00:00
FILE "04 - John Cage - Empty Words (Vocal Solo).wav" WAVE
TRACK 04 AUDIO
TITLE "John Cage - Empty Words (Vocal Solo)"
PERFORMER "John Cage & Sun Ra"
FLAGS DCP
INDEX 01 00:00:00
FILE "05 - John Cage - Empty Words (Silent Solo).wav" WAVE
TRACK 05 AUDIO
TITLE "John Cage - Empty Words (Silent Solo)"
PERFORMER "John Cage & Sun Ra"
FLAGS DCP
INDEX 01 00:00:00
FILE "06 - John Cage - Empty Words (Vocal Solo).wav" WAVE
TRACK 06 AUDIO
TITLE "John Cage - Empty Words (Vocal Solo)"
PERFORMER "John Cage & Sun Ra"
FLAGS DCP
INDEX 01 00:00:00
FILE "07 - Sun Ra- Untitled Keyboard Solo 2.wav" WAVE
TRACK 07 AUDIO
TITLE "Sun Ra- Untitled Keyboard Solo 2"
PERFORMER "John Cage & Sun Ra"
FLAGS DCP
INDEX 01 00:00:00
FILE "08 - Sun Ra - We Hold This Myth to Be Potential.wav" WAVE
TRACK 08 AUDIO
TITLE "Sun Ra - We Hold This Myth to Be Potential"
PERFORMER "John Cage & Sun Ra"
FLAGS DCP
INDEX 01 00:00:00
FILE "09 - Sun Ra - The Damned Air.wav" WAVE
TRACK 09 AUDIO
TITLE "Sun Ra - The Damned Air"
PERFORMER "John Cage & Sun Ra"
FLAGS DCP
INDEX 01 00:00:00
FILE "10 - John Cage - Empty Words (Vocal Solo).wav" WAVE
TRACK 10 AUDIO
TITLE "John Cage - Empty Words (Vocal Solo)"
PERFORMER "John Cage & Sun Ra"
FLAGS DCP
INDEX 01 00:00:00
FILE "11 - John Cage - Empty Words (Silent Solo).wav" WAVE
TRACK 11 AUDIO
TITLE "John Cage - Empty Words (Silent Solo)"
PERFORMER "John Cage & Sun Ra"
FLAGS DCP
INDEX 01 00:00:00
FILE "12 - John Cage - Empty Words (Vocal Solo).wav" WAVE
TRACK 12 AUDIO
TITLE "John Cage - Empty Words (Vocal Solo)"
PERFORMER "John Cage & Sun Ra"
FLAGS DCP
INDEX 01 00:00:00
FILE "13 - Sun Ra - The Living Parable.wav" WAVE
TRACK 13 AUDIO
TITLE "Sun Ra - The Living Parable"
PERFORMER "John Cage & Sun Ra"
FLAGS DCP
INDEX 01 00:00:00
FILE "14 - Sun Ra - This is The Space Age.wav" WAVE
TRACK 14 AUDIO
TITLE "Sun Ra - This is The Space Age"
PERFORMER "John Cage & Sun Ra"
FLAGS DCP
INDEX 01 00:00:00
FILE "15 - Sun Ra - Untitled Keyboard Solo 3.wav" WAVE
TRACK 15 AUDIO
TITLE "Sun Ra - Untitled Keyboard Solo 3"
PERFORMER "John Cage & Sun Ra"
FLAGS DCP
INDEX 01 00:00:00
FILE "16 - Enlightenment (featuring June Tyson).wav" WAVE
TRACK 16 AUDIO
TITLE "Enlightenment (featuring June Tyson)"
PERFORMER "John Cage & Sun Ra"
FLAGS DCP
INDEX 01 00:00:00
FILE "17 - Sun Ra - Untitled Keyboard Solo 4.wav" WAVE
TRACK 17 AUDIO
TITLE "Sun Ra - Untitled Keyboard Solo 4"
PERFORMER "John Cage & Sun Ra"
FLAGS DCP
INDEX 01 00:00:00
FILE "18 - John Cage and Sun Ra - Silent Duel.wav" WAVE
TRACK 18 AUDIO
TITLE "John Cage and Sun Ra - Silent Duel"
PERFORMER "John Cage & Sun Ra"
FLAGS DCP
INDEX 01 00:00:00
FILE "19 - John Cage and Sun Ra - Empty Words and Keyboard.wav" WAVE
TRACK 19 AUDIO
TITLE "John Cage and Sun Ra - Empty Words and Keyboard"
PERFORMER "John Cage & Sun Ra"
FLAGS DCP
INDEX 01 00:00:00
FILE "20 - John Cage and Sun Ra - Silent Duel 2.wav" WAVE
TRACK 20 AUDIO
TITLE "John Cage and Sun Ra - Silent Duel 2"
PERFORMER "John Cage & Sun Ra"
FLAGS DCP
INDEX 01 00:00:00
FILE "21 - Sun Ra - Untitled Keyboard Solo 5.wav" WAVE
TRACK 21 AUDIO
TITLE "Sun Ra - Untitled Keyboard Solo 5"
PERFORMER "John Cage & Sun Ra"
FLAGS DCP
INDEX 01 00:00:00
01:58
557
Нет комментариев. Ваш будет первым!