Поиск

(Avant-Garde Jazz, Free Improvisation) [CD] Andrew Barker, Paul Dunmall, Tim Dahl - Luddite - 2014, FLAC (tracks+.cue), lossless

(Avant-Garde Jazz, Free Improvisation) [CD] Andrew Barker, Paul Dunmall, Tim Dahl - Luddite - 2014, FLAC (tracks+.cue), lossless
Andrew Barker, Paul Dunmall, Tim Dahl - Luddite Жанр: Avant-Garde Jazz, Free Improvisation
Носитель: CD
Год издания: 2014
Издатель (лейбл): New Atlantis Records/Phantom Ear Music
Номер по каталогу: NA-CD-011
Аудиокодек: FLAC (*.flac)
Тип рипа: tracks+.cue
Битрейт аудио: lossless
Продолжительность: 46:06
Источник (релизер): ruskaval
Наличие сканов в содержимом раздачи: да
Треклист:
01. Shame Game (6:25)
02. Luddite (10:13)
03. Champion (4:46)
04. No Pity Party (7:55)
05. Spells (8:20)
06. Flecks (8:27)
Personnel:
Andrew Barker - drums
Paul Dunmall - tenor saxophone, bass clarinet
Tim Dahl - bass (1, 3, 5)
Rec.: Brooklyn, New York, June 13, 2012.
 
 
Об альбоме (сборнике)
This is the second album emanating from celebrated British saxophonist, Paul Dunmall's 2012 visit to New York City, performing at the Vision Festival, and follows his initial 2013 appearance for New Atlantis Records on a date led by guitarist Edward Ricart, titled Chameleon. Hence, top New York City-based improvisers, drummer Andrew Barker and bassist Tim Dahl—the latter appearing on three tracks, lend their faculties for a set that poses a myriad of irregular rhythmic explorations. And while Dunmall's explosive tenor sax lines emphasize the group's power-packed tactics, the musicians' remain agile amid a host of changeable motifs, including areas where gruff, microtonal idiosyncrasies alter the flows and perspectives.
Whether Dunmall and Barker are going toe-to-toe or when Dahl is present, the band covers just about every conceivable angle imaginable as an improvising unit, sans any filler material. Barker is a proverbial force of nature with his polyrhythmic assaults and snappy cymbals hits. With an aggregation of fractured storylines, they pursue oscillating medium tempo romps while often breaking into a whirlwind inferno.
On "No Pity Party," Dunmall's energized and flirtatious upper register phrasings launch a deeply conversational sequence of twisting notions and fierce interactions among the rhythm section. Dahl's deep bass and Barker's tumultuous drumming envelops the saxophonist's soaring trajectory. Yet on "Spells," Dahl's cyclical arco lines are expanded by Dunmall, as the duo creates a vortex of expansive improvisational opuses. However the final piece "Flecks," commences with a gravelly and rather low-key platform; although, the saxophonist opens it up via recoiling notes darting across the studio, spawning a jagged loop of sorts. It's high-intensity improvisation as the musicians were most assuredly up for the occasion, correlating their robust imaginations and heightened sense of the dynamic into ardently executed outcomes.

 
Лог создания рипа
Exact Audio Copy V1.0 beta 6 from 9. April 2015
EAC extraction logfile from 15. April 2015, 13:19
Andrew Barker, Paul Dunmall, Tim Dahl / Luddite
Used drive : SlimtypeeNAU508 5 Adapter: 1 ID: 1
Read mode : Secure
Utilize accurate stream : Yes
Defeat audio cache : Yes
Make use of C2 pointers : No
Read offset correction : 6
Overread into Lead-In and Lead-Out : No
Fill up missing offset samples with silence : Yes
Delete leading and trailing silent blocks : No
Null samples used in CRC calculations : Yes
Used interface : Native Win32 interface for Win NT & 2000
Gap handling : Appended to previous track
Used output format : User Defined Encoder
Selected bitrate : 768 kBit/s
Quality : High
Add ID3 tag : No
Command line compressor : C:\Program Files (x86)\Exact Audio Copy\Flac\flac.exe
Additional command line options : -8 -V -T "ARTIST=%artist%" -T "TITLE=%title%" -T "ALBUM=%albumtitle%" -T "DATE=%year%" -T "TRACKNUMBER=%tracknr%" -T "TOTALTRACKS=%numtracks%" -T "GENRE=%genre%" -T "ALBUMARTIST=%albumartist%" -T "ALBUM ARTIST=%albumartist%" -T "COMMENT=EAC Secure Mode, Test & Copy, AccurateRip, FLAC -8" %source%
TOC of the extracted CD
Track | Start | Length | Start sector | End sector
---------------------------------------------------------
1 | 0:00.00 | 6:24.66 | 0 | 28865
2 | 6:24.66 | 10:13.05 | 28866 | 74845
3 | 16:37.71 | 4:46.05 | 74846 | 96300
4 | 21:24.01 | 7:55.16 | 96301 | 131941
5 | 29:19.17 | 8:20.10 | 131942 | 169451
6 | 37:39.27 | 8:26.48 | 169452 | 207449
Track 1
Filename C:\EAC rips\01 - Shame Game.wav
Pre-gap length 0:00:02.00
Peak level 99.9 %
Extraction speed 1.1 X
Track quality 100.0 %
Test CRC 767C7ABD
Copy CRC 767C7ABD
Track not present in AccurateRip database
Copy OK
Track 2
Filename C:\EAC rips\02 - Luddite.wav
Peak level 99.9 %
Extraction speed 1.4 X
Track quality 100.0 %
Test CRC 266C4F40
Copy CRC 266C4F40
Track not present in AccurateRip database
Copy OK
Track 3
Filename C:\EAC rips\03 - Champion.wav
Peak level 99.9 %
Extraction speed 1.5 X
Track quality 100.0 %
Test CRC C8E3F89B
Copy CRC C8E3F89B
Track not present in AccurateRip database
Copy OK
Track 4
Filename C:\EAC rips\04 - No Pity Party.wav
Peak level 99.9 %
Extraction speed 1.7 X
Track quality 100.0 %
Test CRC 49A79E7B
Copy CRC 49A79E7B
Track not present in AccurateRip database
Copy OK
Track 5
Filename C:\EAC rips\05 - Spells.wav
Peak level 99.9 %
Extraction speed 1.9 X
Track quality 100.0 %
Test CRC D0AC13F7
Copy CRC D0AC13F7
Track not present in AccurateRip database
Copy OK
Track 6
Filename C:\EAC rips\06 - Flecks.wav
Peak level 94.3 %
Extraction speed 1.9 X
Track quality 99.9 %
Test CRC 985A2B17
Copy CRC 985A2B17
Track not present in AccurateRip database
Copy OK
None of the tracks are present in the AccurateRip database
No errors occurred
End of status report
---- CUETools DB Plugin V2.1.6
[CTDB TOCID: 82zq5OPcxD9SeexfJoUaTWjnWRE-] disk not present in database
Submit result: 82zq5OPcxD9SeexfJoUaTWjnWRE- has been uploaded
==== Log checksum 2DE8C030C5393822F7D2EE52D9E8B35E14FBAA8FAB4E7897591B30701E4E37FD ====
 
Содержание индексной карты (.CUE)
REM GENRE "New Atlantis NA-CD-011"
REM DATE 2014
REM DISCID 590ACE06
REM COMMENT "ExactAudioCopy v1.0b6"
PERFORMER "Andrew Barker, Paul Dunmall, Tim Dahl"
TITLE "Luddite"
FILE "01 - Shame Game.wav" WAVE
TRACK 01 AUDIO
TITLE "Shame Game"
PERFORMER "Andrew Barker, Paul Dunmall, Tim Dahl"
INDEX 01 00:00:00
FILE "02 - Luddite.wav" WAVE
TRACK 02 AUDIO
TITLE "Luddite"
PERFORMER "Andrew Barker, Paul Dunmall, Tim Dahl"
INDEX 01 00:00:00
FILE "03 - Champion.wav" WAVE
TRACK 03 AUDIO
TITLE "Champion"
PERFORMER "Andrew Barker, Paul Dunmall, Tim Dahl"
INDEX 01 00:00:00
FILE "04 - No Pity Party.wav" WAVE
TRACK 04 AUDIO
TITLE "No Pity Party"
PERFORMER "Andrew Barker, Paul Dunmall, Tim Dahl"
INDEX 01 00:00:00
FILE "05 - Spells.wav" WAVE
TRACK 05 AUDIO
TITLE "Spells"
PERFORMER "Andrew Barker, Paul Dunmall, Tim Dahl"
INDEX 01 00:00:00
FILE "06 - Flecks.wav" WAVE
TRACK 06 AUDIO
TITLE "Flecks"
PERFORMER "Andrew Barker, Paul Dunmall, Tim Dahl"
INDEX 01 00:00:00
01:58
301
Нет комментариев. Ваш будет первым!