Вы используете незарегистрированную версию компонента "Вкладки"!

Поиск

(Avant-Garde Jazz, Free Jazz) [CD] Heinz Geisser & Guerino Mazzola Quartet (w/ Scott Fields & Matt Turner) - Maze - 1999, FLAC (tracks+.cue), lossless

(Avant-Garde Jazz, Free Jazz) [CD] Heinz Geisser & Guerino Mazzola Quartet (w/ Scott Fields & Matt Turner) - Maze - 1999, FLAC (tracks+.cue), lossless
Треклист:
Heinz Geisser & Guerino Mazzola Quartet / Maze
Жанр: Avant-Garde Jazz, Free Jazz
Носитель: CD
Страна-производитель диска: US
Год издания: 1999
Издатель (лейбл): Quixotic Records
Номер по каталогу: Quixotic 5002
Страна исполнителя (группы): US
Аудиокодек: FLAC (*.flac)
Тип рипа: tracks+.cue
Битрейт аудио: lossless
Продолжительность: 72:39
Источник (релизер): свой фирменный диск
Наличие сканов в содержимом раздачи:
Треклист:
1. Maze 12:03
2. Undercover Agent 5:00
3. Exhilaration 9:33
4. Blues Connotation 8:56
5. Entwined 13:29
6. Twinkling Notion 8:59
7. Purple Exit 14:37
 
Лог создания рипа
Exact Audio Copy V1.0 beta 3 from 29. August 2011
EAC extraction logfile from 28. July 2014, 13:31
Heinz Geisser & Guerino Mazzola Quartet / Maze
Used drive : PIONEER DVD-RW DVR-115D Adapter: 0 ID: 0
Read mode : Secure
Utilize accurate stream : Yes
Defeat audio cache : Yes
Make use of C2 pointers : No
Read offset correction : 48
Overread into Lead-In and Lead-Out : No
Fill up missing offset samples with silence : Yes
Delete leading and trailing silent blocks : No
Null samples used in CRC calculations : Yes
Used interface : Installed external ASPI interface
Gap handling : Appended to previous track
Used output format : User Defined Encoder
Selected bitrate : 896 kBit/s
Quality : High
Add ID3 tag : No
Command line compressor : C:\Program Files\Exact Audio Copy\FLAC\FLAC.EXE
Additional command line options : -6 -V -T "ARTIST=%artist%" -T "TITLE=%title%" -T "ALBUM=%albumtitle%" -T "DATE=%year%" -T "TRACKNUMBER=%tracknr%" -T "GENRE=%genre%" -T "COMMENT=%comment%" -T "BAND=%albuminterpret%" -T "COMPOSER=%composer%" %haslyrics%--tag-from-file=LYRICS="%lyricsfile%"%haslyrics% -T "DISCNUMBER=%cdnumber%" -T "TOTALDISCS=%totalcds%" -T "TOTALTRACKS=%numtracks%" %hascover%--picture="%coverfile%"%hascover% %source% -o %dest%
TOC of the extracted CD
Track | Start | Length | Start sector | End sector
---------------------------------------------------------
1 | 0:00.00 | 12:01.07 | 0 | 54081
2 | 12:01.07 | 5:00.03 | 54082 | 76584
3 | 17:01.10 | 9:33.65 | 76585 | 119624
4 | 26:35.00 | 8:56.62 | 119625 | 159886
5 | 35:31.62 | 13:29.70 | 159887 | 220631
6 | 49:01.57 | 8:59.30 | 220632 | 261086
7 | 58:01.12 | 14:37.68 | 261087 | 326929
Track 1
Filename D:\zzz\01 - Maze.wav
Pre-gap length 0:00:02.00
Peak level 92.3 %
Extraction speed 5.4 X
Track quality 99.9 %
Test CRC AA5500A1
Copy CRC AA5500A1
Track not present in AccurateRip database
Copy OK
Track 2
Filename D:\zzz\02 - Undercover Agent.wav
Peak level 55.6 %
Extraction speed 6.1 X
Track quality 100.0 %
Test CRC 30EE9067
Copy CRC 30EE9067
Track not present in AccurateRip database
Copy OK
Track 3
Filename D:\zzz\03 - Exhilaration.wav
Peak level 99.0 %
Extraction speed 7.0 X
Track quality 100.0 %
Test CRC 757E303E
Copy CRC 757E303E
Track not present in AccurateRip database
Copy OK
Track 4
Filename D:\zzz\04 - Blues Connotation.wav
Peak level 99.0 %
Extraction speed 7.2 X
Track quality 99.9 %
Test CRC A9B484EA
Copy CRC A9B484EA
Track not present in AccurateRip database
Copy OK
Track 5
Filename D:\zzz\05 - Entwined.wav
Peak level 73.5 %
Extraction speed 8.5 X
Track quality 100.0 %
Test CRC CE271A02
Copy CRC CE271A02
Track not present in AccurateRip database
Copy OK
Track 6
Filename D:\zzz\06 - Twinkling Notion.wav
Peak level 64.9 %
Extraction speed 8.9 X
Track quality 100.0 %
Test CRC BA635E81
Copy CRC BA635E81
Track not present in AccurateRip database
Copy OK
Track 7
Filename D:\zzz\07 - Purple Exit.wav
Peak level 86.9 %
Extraction speed 9.8 X
Track quality 100.0 %
Test CRC 19A44067
Copy CRC 19A44067
Track not present in AccurateRip database
Copy OK
None of the tracks are present in the AccurateRip database
No errors occurred
End of status report
==== Log checksum F68EF0ECD1DEFFEC7D49EC2D3C5954C1E165BD6A7A6A986F74FCBA6F2AD197FE ====
 
Содержание индексной карты (.CUE)
REM GENRE "Avant-Garde Jazz"
REM DATE 1999
REM DISCID 57110707
REM COMMENT "ExactAudioCopy v1.0b3"
PERFORMER "Heinz Geisser & Guerino Mazzola Quartet"
TITLE "Maze"
FILE "01 - Maze.wav" WAVE
TRACK 01 AUDIO
TITLE "Maze"
PERFORMER "Heinz Geisser & Guerino Mazzola Quartet"
INDEX 01 00:00:00
FILE "02 - Undercover Agent.wav" WAVE
TRACK 02 AUDIO
TITLE "Undercover Agent"
PERFORMER "Heinz Geisser & Guerino Mazzola Quartet"
INDEX 01 00:00:00
FILE "03 - Exhilaration.wav" WAVE
TRACK 03 AUDIO
TITLE "Exhilaration"
PERFORMER "Heinz Geisser & Guerino Mazzola Quartet"
INDEX 01 00:00:00
FILE "04 - Blues Connotation.wav" WAVE
TRACK 04 AUDIO
TITLE "Blues Connotation"
PERFORMER "Heinz Geisser & Guerino Mazzola Quartet"
INDEX 01 00:00:00
FILE "05 - Entwined.wav" WAVE
TRACK 05 AUDIO
TITLE "Entwined"
PERFORMER "Heinz Geisser & Guerino Mazzola Quartet"
INDEX 01 00:00:00
FILE "06 - Twinkling Notion.wav" WAVE
TRACK 06 AUDIO
TITLE "Twinkling Notion"
PERFORMER "Heinz Geisser & Guerino Mazzola Quartet"
INDEX 01 00:00:00
FILE "07 - Purple Exit.wav" WAVE
TRACK 07 AUDIO
TITLE "Purple Exit"
PERFORMER "Heinz Geisser & Guerino Mazzola Quartet"
INDEX 01 00:00:00
 
Лог проверки качества
d:\>d:\aucdtect -d/-m0 d:\zzz\*.wav
auCDtect: CD records authenticity detector, version 0.8.2
Copyright (c) 2004 Oleg Berngardt. All rights reserved.
Copyright (c) 2004 Alexander Djourik. All rights reserved.
------------------------------------------------------------
Processing file: [01. Maze.wav]
------------------------------------------------------------
This track looks like CDDA with probability 100%
------------------------------------------------------------
Processing file: [02. Undercover Agent.wav]
------------------------------------------------------------
This track looks like CDDA with probability 100%
------------------------------------------------------------
Processing file: [03. Exhilaration.wav]
------------------------------------------------------------
This track looks like CDDA with probability 100%
------------------------------------------------------------
Processing file: [04. Blues Connotation.wav]
------------------------------------------------------------
This track looks like CDDA with probability 100%
------------------------------------------------------------
Processing file: [05. Entwined.wav]
------------------------------------------------------------
This track looks like CDDA with probability 100%
------------------------------------------------------------
Processing file: [06. Twinkling Notion.wav]
------------------------------------------------------------
This track looks like CDDA with probability 100%
------------------------------------------------------------
Processing file: [07. Purple Exit.wav]
------------------------------------------------------------
This track looks like CDDA with probability 100%
------------------------------------------------------------
Final Conclusion:
------------------------------------------------------------
These tracks looks like CDDA with probability 100%
Доп. информация:
 
Album Info & AMG Review
Recorded 10/18/97 at Tom Tedesco's Studio, New Jersey
Producers: Guerino Mazzola, Heinz Geisser and Bob Rusch
Executive producer for Quixotic Records: Ralph Krine
Engineer: Jon Rosenberg
Mastered by Aldo Borrelli at PhonoComp, Tribiano, Milano, Italy
Cover & back photos by Manfred Ziegele
Liner notes: Stuart Broomer, July 1998
The instrumentation belies a relentless intensity and focus that catapults the alternately fierce and lithe group sound into a wondrous aura of magical displays. Guerino Mazzola and Heinz Geisser deserve greater recognition, and, in a fair world, this release would merit substantial popular accolades. Geisser and Mazzola have collaborated together successfully for years, perhaps their most stimulating album the compelling duo performance entitled Toni's Delight -- Live in Seoul. Here, they are joined by two heavyweights -- electric guitarist Scott Fields and cellist Matt Turner -- each of whom has slowly carved a niche for himself as an adventurous and sophisticated improviser associated with more progressive, and even radical, styles. Turner, like Mat Maneri, has helped to plow new fields for his stringed instrument, and, here, he sings and spars, dances and whines. When meshed with Mazzola's piano, the results exhilarate, with winding swirls (mazes?) connecting in odd places. Sometimes there is a disjointedness, but more often the blurring colors mesmerize with a shimmering beauty. Like a fire that appears smooth only on the surface, the real action is inside, where cello, percussion, guitar, and piano blend and separate, singing songs of solitude and camaraderie. The tight and serious results of this full-length recording should satisfy the most demanding tastes.
 
Состав
Guerino Mazzola: piano
Heinz Geisser: percussion, valiha
Scott Fields: electric guitar
Matt Turner: violoncello
По всем вопросам пишите личное сообщение пользователю M0p94ok.
04:59
138
Нет комментариев. Ваш будет первым!