Вы используете незарегистрированную версию компонента "Вкладки"!

Поиск

(Avant-Garde Jazz) [CD] Eric Revis Trio (Andrew Cyrille, Kris Davis) ‎ - City of Asylum - 2013, FLAC (tracks+.cue), lossless

(Avant-Garde Jazz) [CD] Eric Revis Trio (Andrew Cyrille, Kris Davis) ‎ - City of Asylum - 2013, FLAC (tracks+.cue), lossless
Треклист:
Eric Revis Trio‎ / City of Asylum
Жанр: Avant-Garde Jazz
Носитель: CD
Год издания: 2013
Издатель (лейбл): Clean Feed
Номер по каталогу: CF277
Страна исполнителя (группы): USA
Аудиокодек: FLAC (*.flac)
Тип рипа: tracks+.cue
Битрейт аудио: lossless
Продолжительность: 00:59:11
Источник (релизер): Спасибо 6060842!
Наличие сканов в содержимом раздачи: нет
Треклист:
01. Vadim
02. Egon
03. Gallop's Gallop (Thelonious Monk)
04. Sot Avast
05. For Bill Traylor
06. Prayer (Keith Jarrett)
07. St. Cyr
08. Harry Partch Laments the Dying of the Moon and Laughs
09. Question
10. City of Asylum
Revis/Davis/Cyrille
 
Лог создания рипа
X Lossless Decoder version 20130407 (143.0)
XLD extraction logfile from 2013-05-19 02:14:45 +0400
Eric Revis, Kris Davis, Andrew Cyrille / City of Asylum
Used drive : HL-DT-ST DVDRW GX30N (revision RP09)
Media type : Pressed CD
Ripper mode : XLD Secure Ripper
Disable audio cache : OK for the drive with a cache less than 1375KiB
Make use of C2 pointers : NO
Read offset correction : 6
Max retry count : 20
Gap status : Analyzed, Appended
TOC of the extracted CD
Track | Start | Length | Start sector | End sector
---------------------------------------------------------
1 | 00:00:00 | 04:07:27 | 0 | 18551
2 | 04:07:27 | 05:12:74 | 18552 | 42025
3 | 09:20:26 | 07:12:23 | 42026 | 74448
4 | 16:32:49 | 06:16:11 | 74449 | 102659
5 | 22:48:60 | 07:39:59 | 102660 | 137143
6 | 30:28:44 | 04:39:65 | 137144 | 158133
7 | 35:08:34 | 08:28:18 | 158134 | 196251
8 | 43:36:52 | 03:09:13 | 196252 | 210439
9 | 46:45:65 | 05:47:41 | 210440 | 236505
10 | 52:33:31 | 06:37:44 | 236506 | 266324
AccurateRip Summary
Disc not found in AccurateRip DB.
All Tracks
Album gain : -4.96 dB
Peak : 0.999420
Statistics
Read error : 0
Jitter error (maybe fixed) : 0
Retry sector count : 0
Damaged sector count : 0
Track 01
Filename : /Users/anch/Music/FLAC/Eric Revis, Kris Davis, Andrew Cyrille - 2013 - City of Asylum [FLAC]/01 - Vadim.flac
/Users/anch/Music/FLAC/Eric Revis, Kris Davis, Andrew Cyrille - 2013 - City of Asylum [MP3 320]/01 - Vadim.mp3
/Users/anch/Music/FLAC/Eric Revis, Kris Davis, Andrew Cyrille - 2013 - City of Asylum [MP3 V0]/01 - Vadim.mp3
Pre-gap length : 00:02:00
Track gain : -5.48 dB
Peak : 0.999329
CRC32 hash (test run) : 7B0E82FB
CRC32 hash : 7B0E82FB
CRC32 hash (skip zero) : 8FD7B46F
AccurateRip v1 signature : 4F7650B7
AccurateRip v2 signature : 185EADAB
->Track not present in AccurateRip database.
Statistics
Read error : 0
Jitter error (maybe fixed) : 0
Retry sector count : 0
Damaged sector count : 0
Track 02
Filename : /Users/anch/Music/FLAC/Eric Revis, Kris Davis, Andrew Cyrille - 2013 - City of Asylum [FLAC]/02 - Egon.flac
/Users/anch/Music/FLAC/Eric Revis, Kris Davis, Andrew Cyrille - 2013 - City of Asylum [MP3 320]/02 - Egon.mp3
/Users/anch/Music/FLAC/Eric Revis, Kris Davis, Andrew Cyrille - 2013 - City of Asylum [MP3 V0]/02 - Egon.mp3
Track gain : -6.78 dB
Peak : 0.999420
CRC32 hash (test run) : B174A0B7
CRC32 hash : B174A0B7
CRC32 hash (skip zero) : 840BD79E
AccurateRip v1 signature : E7035EDC
AccurateRip v2 signature : 3D5EAAFE
->Track not present in AccurateRip database.
Statistics
Read error : 0
Jitter error (maybe fixed) : 0
Retry sector count : 0
Damaged sector count : 0
Track 03
Filename : /Users/anch/Music/FLAC/Eric Revis, Kris Davis, Andrew Cyrille - 2013 - City of Asylum [FLAC]/03 - Gallop's Gallop.flac
/Users/anch/Music/FLAC/Eric Revis, Kris Davis, Andrew Cyrille - 2013 - City of Asylum [MP3 320]/03 - Gallop's Gallop.mp3
/Users/anch/Music/FLAC/Eric Revis, Kris Davis, Andrew Cyrille - 2013 - City of Asylum [MP3 V0]/03 - Gallop's Gallop.mp3
Track gain : -5.43 dB
Peak : 0.999420
CRC32 hash (test run) : C0DABB42
CRC32 hash : C0DABB42
CRC32 hash (skip zero) : 465A235A
AccurateRip v1 signature : 1622BD22
AccurateRip v2 signature : 5697FC2D
->Track not present in AccurateRip database.
Statistics
Read error : 0
Jitter error (maybe fixed) : 0
Retry sector count : 0
Damaged sector count : 0
Track 04
Filename : /Users/anch/Music/FLAC/Eric Revis, Kris Davis, Andrew Cyrille - 2013 - City of Asylum [FLAC]/04 - Sot Avast.flac
/Users/anch/Music/FLAC/Eric Revis, Kris Davis, Andrew Cyrille - 2013 - City of Asylum [MP3 320]/04 - Sot Avast.mp3
/Users/anch/Music/FLAC/Eric Revis, Kris Davis, Andrew Cyrille - 2013 - City of Asylum [MP3 V0]/04 - Sot Avast.mp3
Track gain : -1.50 dB
Peak : 0.999176
CRC32 hash (test run) : 9CBB7764
CRC32 hash : 9CBB7764
CRC32 hash (skip zero) : 4F174F5C
AccurateRip v1 signature : 7CEBB531
AccurateRip v2 signature : F157A018
->Track not present in AccurateRip database.
Statistics
Read error : 0
Jitter error (maybe fixed) : 0
Retry sector count : 0
Damaged sector count : 0
Track 05
Filename : /Users/anch/Music/FLAC/Eric Revis, Kris Davis, Andrew Cyrille - 2013 - City of Asylum [FLAC]/05 - For Bill Traylor.flac
/Users/anch/Music/FLAC/Eric Revis, Kris Davis, Andrew Cyrille - 2013 - City of Asylum [MP3 320]/05 - For Bill Traylor.mp3
/Users/anch/Music/FLAC/Eric Revis, Kris Davis, Andrew Cyrille - 2013 - City of Asylum [MP3 V0]/05 - For Bill Traylor.mp3
Track gain : 0.25 dB
Peak : 0.938934
CRC32 hash (test run) : CD92D973
CRC32 hash : CD92D973
CRC32 hash (skip zero) : 27909F91
AccurateRip v1 signature : 78F44E66
AccurateRip v2 signature : 7F32E39E
->Track not present in AccurateRip database.
Statistics
Read error : 0
Jitter error (maybe fixed) : 0
Retry sector count : 0
Damaged sector count : 0
Track 06
Filename : /Users/anch/Music/FLAC/Eric Revis, Kris Davis, Andrew Cyrille - 2013 - City of Asylum [FLAC]/06 - Prayer.flac
/Users/anch/Music/FLAC/Eric Revis, Kris Davis, Andrew Cyrille - 2013 - City of Asylum [MP3 320]/06 - Prayer.mp3
/Users/anch/Music/FLAC/Eric Revis, Kris Davis, Andrew Cyrille - 2013 - City of Asylum [MP3 V0]/06 - Prayer.mp3
Track gain : 0.94 dB
Peak : 0.972717
CRC32 hash (test run) : DD100FA8
CRC32 hash : DD100FA8
CRC32 hash (skip zero) : D6FB3F05
AccurateRip v1 signature : 558690F2
AccurateRip v2 signature : 2242B6BE
->Track not present in AccurateRip database.
Statistics
Read error : 0
Jitter error (maybe fixed) : 0
Retry sector count : 0
Damaged sector count : 0
Track 07
Filename : /Users/anch/Music/FLAC/Eric Revis, Kris Davis, Andrew Cyrille - 2013 - City of Asylum [FLAC]/07 - St. Gyr.flac
/Users/anch/Music/FLAC/Eric Revis, Kris Davis, Andrew Cyrille - 2013 - City of Asylum [MP3 320]/07 - St. Gyr.mp3
/Users/anch/Music/FLAC/Eric Revis, Kris Davis, Andrew Cyrille - 2013 - City of Asylum [MP3 V0]/07 - St. Gyr.mp3
Track gain : -6.27 dB
Peak : 0.999359
CRC32 hash (test run) : 52C5142D
CRC32 hash : 52C5142D
CRC32 hash (skip zero) : 597E1867
AccurateRip v1 signature : A7047F08
AccurateRip v2 signature : F1BBC6C1
->Track not present in AccurateRip database.
Statistics
Read error : 0
Jitter error (maybe fixed) : 0
Retry sector count : 0
Damaged sector count : 0
Track 08
Filename : /Users/anch/Music/FLAC/Eric Revis, Kris Davis, Andrew Cyrille - 2013 - City of Asylum [FLAC]/08 - Harry Partch Laments the Dying Of the Moon… and Then Laughs.flac
/Users/anch/Music/FLAC/Eric Revis, Kris Davis, Andrew Cyrille - 2013 - City of Asylum [MP3 320]/08 - Harry Partch Laments the Dying Of the Moon… and Then Laughs.mp3
/Users/anch/Music/FLAC/Eric Revis, Kris Davis, Andrew Cyrille - 2013 - City of Asylum [MP3 V0]/08 - Harry Partch Laments the Dying Of the Moon… and Then Laughs.mp3
Track gain : -3.47 dB
Peak : 0.999268
CRC32 hash (test run) : A24F6E5F
CRC32 hash : A24F6E5F
CRC32 hash (skip zero) : 4685FE7D
AccurateRip v1 signature : 09962709
AccurateRip v2 signature : A8A086FC
->Track not present in AccurateRip database.
Statistics
Read error : 0
Jitter error (maybe fixed) : 0
Retry sector count : 0
Damaged sector count : 0
Track 09
Filename : /Users/anch/Music/FLAC/Eric Revis, Kris Davis, Andrew Cyrille - 2013 - City of Asylum [FLAC]/09 - Question.flac
/Users/anch/Music/FLAC/Eric Revis, Kris Davis, Andrew Cyrille - 2013 - City of Asylum [MP3 320]/09 - Question.mp3
/Users/anch/Music/FLAC/Eric Revis, Kris Davis, Andrew Cyrille - 2013 - City of Asylum [MP3 V0]/09 - Question.mp3
Track gain : -5.57 dB
Peak : 0.999390
CRC32 hash (test run) : 3BF36B3C
CRC32 hash : 3BF36B3C
CRC32 hash (skip zero) : CAB61B41
AccurateRip v1 signature : 909AE1E4
AccurateRip v2 signature : 535B1609
->Track not present in AccurateRip database.
Statistics
Read error : 0
Jitter error (maybe fixed) : 0
Retry sector count : 0
Damaged sector count : 0
Track 10
Filename : /Users/anch/Music/FLAC/Eric Revis, Kris Davis, Andrew Cyrille - 2013 - City of Asylum [FLAC]/10 - City of Asylum.flac
/Users/anch/Music/FLAC/Eric Revis, Kris Davis, Andrew Cyrille - 2013 - City of Asylum [MP3 320]/10 - City of Asylum.mp3
/Users/anch/Music/FLAC/Eric Revis, Kris Davis, Andrew Cyrille - 2013 - City of Asylum [MP3 V0]/10 - City of Asylum.mp3
Track gain : 5.82 dB
Peak : 0.567932
CRC32 hash (test run) : 27465141
CRC32 hash : 27465141
CRC32 hash (skip zero) : CCD4FFFC
AccurateRip v1 signature : 3D68FAD2
AccurateRip v2 signature : 7077FE32
->Track not present in AccurateRip database.
Statistics
Read error : 0
Jitter error (maybe fixed) : 0
Retry sector count : 0
Damaged sector count : 0
No errors occurred
End of status report
 
Содержание индексной карты (.CUE)
TITLE "City of Asylum"
PERFORMER "Eric Revis, Kris Davis, Andrew Cyrille"
CATALOG 5609063002775
REM GENRE "Free Jazz"
REM DATE "2013"
REM DISCID 7F0DDF0A
REM REPLAYGAIN_ALBUM_GAIN -4.96 dB
REM REPLAYGAIN_ALBUM_PEAK 0.999420
FILE "01 - Vadim.flac" WAVE
TRACK 01 AUDIO
TITLE "Vadim"
PERFORMER "Eric Revis, Kris Davis, Andrew Cyrille"
ISRC PTNF11309051
REM REPLAYGAIN_TRACK_GAIN -5.48 dB
REM REPLAYGAIN_TRACK_PEAK 0.999329
INDEX 01 00:00:00
FILE "02 - Egon.flac" WAVE
TRACK 02 AUDIO
TITLE "Egon"
PERFORMER "Eric Revis, Kris Davis, Andrew Cyrille"
ISRC PTNF11309052
REM REPLAYGAIN_TRACK_GAIN -6.78 dB
REM REPLAYGAIN_TRACK_PEAK 0.999420
INDEX 01 00:00:00
FILE "03 - Gallop's Gallop.flac" WAVE
TRACK 03 AUDIO
TITLE "Gallop's Gallop"
PERFORMER "Eric Revis, Kris Davis, Andrew Cyrille"
ISRC PTNF11309053
REM REPLAYGAIN_TRACK_GAIN -5.43 dB
REM REPLAYGAIN_TRACK_PEAK 0.999420
INDEX 01 00:00:00
FILE "04 - Sot Avast.flac" WAVE
TRACK 04 AUDIO
TITLE "Sot Avast"
PERFORMER "Eric Revis, Kris Davis, Andrew Cyrille"
ISRC PTNF11309054
REM REPLAYGAIN_TRACK_GAIN -1.50 dB
REM REPLAYGAIN_TRACK_PEAK 0.999176
INDEX 01 00:00:00
FILE "05 - For Bill Traylor.flac" WAVE
TRACK 05 AUDIO
TITLE "For Bill Traylor"
PERFORMER "Eric Revis, Kris Davis, Andrew Cyrille"
ISRC PTNF11309055
REM REPLAYGAIN_TRACK_GAIN 0.25 dB
REM REPLAYGAIN_TRACK_PEAK 0.938934
INDEX 01 00:00:00
FILE "06 - Prayer.flac" WAVE
TRACK 06 AUDIO
TITLE "Prayer"
PERFORMER "Eric Revis, Kris Davis, Andrew Cyrille"
ISRC PTNF11309056
REM REPLAYGAIN_TRACK_GAIN 0.94 dB
REM REPLAYGAIN_TRACK_PEAK 0.972717
INDEX 01 00:00:00
FILE "07 - St. Gyr.flac" WAVE
TRACK 07 AUDIO
TITLE "St. Gyr"
PERFORMER "Eric Revis, Kris Davis, Andrew Cyrille"
ISRC PTNF11309057
REM REPLAYGAIN_TRACK_GAIN -6.27 dB
REM REPLAYGAIN_TRACK_PEAK 0.999359
INDEX 01 00:00:00
FILE "08 - Harry Partch Laments the Dying Of the Moon... and Then Laughs.flac" WAVE
TRACK 08 AUDIO
TITLE "Harry Partch Laments the Dying Of the Moon… and Then Laughs"
PERFORMER "Eric Revis, Kris Davis, Andrew Cyrille"
ISRC PTNF11309058
REM REPLAYGAIN_TRACK_GAIN -3.47 dB
REM REPLAYGAIN_TRACK_PEAK 0.999268
INDEX 01 00:00:00
FILE "09 - Question.flac" WAVE
TRACK 09 AUDIO
TITLE "Question"
PERFORMER "Eric Revis, Kris Davis, Andrew Cyrille"
ISRC PTNF11309059
REM REPLAYGAIN_TRACK_GAIN -5.57 dB
REM REPLAYGAIN_TRACK_PEAK 0.999390
INDEX 01 00:00:00
FILE "10 - City of Asylum.flac" WAVE
TRACK 10 AUDIO
TITLE "City of Asylum"
PERFORMER "Eric Revis, Kris Davis, Andrew Cyrille"
ISRC PTNF11309060
REM REPLAYGAIN_TRACK_GAIN 5.82 dB
REM REPLAYGAIN_TRACK_PEAK 0.567932
INDEX 01 00:00:00
 
Об альбоме (сборнике)
Can you tell when a straight-ahead jazz performance – live or recorded – is also an experimental one? No? We can: it happens when Eric Revis is involved, being this double bassist the not-enough-recognized link between Betty Carter and Peter Brotzmann. “City of Asylum” was born from an idea with improbable potential to become a reality – his thought was: what about if I start a trio with a free jazz veteran and a post-everything rising star, would that work? And what about if those roles are represented by Andrew Cyrille, Cecil Taylor’s drummer from the mid-Sixties to the mid-Seventies and now an established, mainstream voice, and young Kris Davis, maybe the most expressive and surprisingly minimalistic of the present day creative pianists? Strange? Not so: since the first gathering a spark happened and this is a trio in continuous development. There’s only three compositions played, by Thelonious Monk, Keith Jarrett and Revis himself; the rest are improvisations. So cohesive that it seems written note by note.
ericrevis.com
 
Состав
Andrew Cyrille - drums
Eric Revis - bass
Kris Davis - piano
По всем вопросам пишите личное сообщение пользователю M0p94ok.
04:59
282
Нет комментариев. Ваш будет первым!