Поиск

(Avant-Garde Jazz, Free-Jazz) Anthony Braxton - Ten Compositions (Quartet) - 2000, APE (image+.cue) lossless

(Avant-Garde Jazz, Free-Jazz) Anthony Braxton - Ten Compositions (Quartet) - 2000, APE (image+.cue) lossless
Треклист:
Anthony Braxton / Ten Compositions (Quartet)
Жанр: Avant-Garde Jazz, Free-Jazz
Страна-производитель диска: USA
Год издания диска: 2000
Издатель (лейбл): CIMP
Номер по каталогу: CIMP 225
Страна: USA
Аудио кодек: APE (*.ape)
Тип рипа: image+.cue
Битрейт аудио: lossless
Продолжительность: 63:46
Источник (релизер): basa005
Наличие сканов в содержимом раздачи: да
Треклист
1 Virgo 12:07
2 New Arrival 8:22
3 McNeil Island 2:53
4 Black Monday 5:45
5 C-Bop 10:56
6 Pumpkin - Take 2 5:43
7 Alfred - Take 2 4:32
8 Griots 2:58
9 No Doubt - Take 2 3:13
10 Lo Joe - Take 3 7:13
Доп. информация: Spirit Room Series Vol.113
Recorded at The Spirit Room, Rossie, NY, May 22-23, 2000.
 
Лог создания рипа
Exact Audio Copy V0.99 prebeta 4 from 23. January 2008
EAC extraction logfile from 11. March 2011, 15:56
Anthony Braxton / Ten Compositions (Quartet) 2000
Used drive : ATAPI DVD A DH16A1L Adapter: 1 ID: 0
Read mode : Secure
Utilize accurate stream : Yes
Defeat audio cache : Yes
Make use of C2 pointers : No
Read offset correction : 6
Overread into Lead-In and Lead-Out : No
Fill up missing offset samples with silence : Yes
Delete leading and trailing silent blocks : No
Null samples used in CRC calculations : Yes
Used interface : Native Win32 interface for Win NT & 2000
Used output format : Internal WAV Routines
Sample format : 44.100 Hz; 16 Bit; Stereo
TOC of the extracted CD
Track | Start | Length | Start sector | End sector
---------------------------------------------------------
1 | 0:00.00 | 12:07.68 | 0 | 54592
2 | 12:07.68 | 8:22.57 | 54593 | 92299
3 | 20:30.50 | 2:53.13 | 92300 | 105287
4 | 23:23.63 | 5:45.59 | 105288 | 131221
5 | 29:09.47 | 10:56.03 | 131222 | 180424
6 | 40:05.50 | 5:43.10 | 180425 | 206159
7 | 45:48.60 | 4:32.30 | 206160 | 226589
8 | 50:21.15 | 2:58.74 | 226590 | 240013
9 | 53:20.14 | 3:13.06 | 240014 | 254494
10 | 56:33.20 | 7:13.13 | 254495 | 286982
Range status and errors
Selected range
Filename C:\avaxhome\Anthony Braxton - Ten Compositions (Quartet) 2000.wav
Peak level 100.0 %
Range quality 100.0 %
Copy CRC 1F47293C
Copy OK
No errors occurred
AccurateRip summary
Track 1 accurately ripped (confidence 4) [1E6467C1]
Track 2 accurately ripped (confidence 4) [0204D988]
Track 3 accurately ripped (confidence 4) [0C2A40BF]
Track 4 accurately ripped (confidence 4) [7ADA4A1F]
Track 5 accurately ripped (confidence 4) [21783E80]
Track 6 accurately ripped (confidence 4) [D04FA285]
Track 7 accurately ripped (confidence 4) [576BDEA4]
Track 8 accurately ripped (confidence 4) [EA9D512A]
Track 9 accurately ripped (confidence 4) [7466CED0]
Track 10 accurately ripped (confidence 4) [E55748D3]
All tracks accurately ripped
End of status report
------------------------------------------------------------
Exact Audio Copy V0.99 prebeta 4 from 23. January 2008
EAC extraction logfile from 11. March 2011, 15:56
Anthony Braxton / Ten Compositions (Quartet) 2000
Used drive : ATAPI DVD A DH16A1L Adapter: 1 ID: 0
Read mode : Secure
Utilize accurate stream : Yes
Defeat audio cache : Yes
Make use of C2 pointers : No
Read offset correction : 6
Overread into Lead-In and Lead-Out : No
Fill up missing offset samples with silence : Yes
Delete leading and trailing silent blocks : No
Null samples used in CRC calculations : Yes
Used interface : Native Win32 interface for Win NT & 2000
Used output format : Internal WAV Routines
Sample format : 44.100 Hz; 16 Bit; Stereo
TOC of the extracted CD
Track | Start | Length | Start sector | End sector
---------------------------------------------------------
1 | 0:00.00 | 12:07.68 | 0 | 54592
2 | 12:07.68 | 8:22.57 | 54593 | 92299
3 | 20:30.50 | 2:53.13 | 92300 | 105287
4 | 23:23.63 | 5:45.59 | 105288 | 131221
5 | 29:09.47 | 10:56.03 | 131222 | 180424
6 | 40:05.50 | 5:43.10 | 180425 | 206159
7 | 45:48.60 | 4:32.30 | 206160 | 226589
8 | 50:21.15 | 2:58.74 | 226590 | 240013
9 | 53:20.14 | 3:13.06 | 240014 | 254494
10 | 56:33.20 | 7:13.13 | 254495 | 286982
Range status and errors
Selected range
Filename C:\avaxhome\Anthony Braxton - Ten Compositions (Quartet) 2000.wav
Peak level 100.0 %
Range quality 100.0 %
Copy CRC 1F47293C
Copy OK
No errors occurred
AccurateRip summary
Track 1 accurately ripped (confidence 4) [1E6467C1]
Track 2 accurately ripped (confidence 4) [0204D988]
Track 3 accurately ripped (confidence 4) [0C2A40BF]
Track 4 accurately ripped (confidence 4) [7ADA4A1F]
Track 5 accurately ripped (confidence 4) [21783E80]
Track 6 accurately ripped (confidence 4) [D04FA285]
Track 7 accurately ripped (confidence 4) [576BDEA4]
Track 8 accurately ripped (confidence 4) [EA9D512A]
Track 9 accurately ripped (confidence 4) [7466CED0]
Track 10 accurately ripped (confidence 4) [E55748D3]
All tracks accurately ripped
End of status report
 
Содержание индексной карты (.CUE)
REM GENRE Jazz
REM DATE 2000
REM DISCID 720EF20A
REM COMMENT "ExactAudioCopy v0.99pb4"
PERFORMER "Anthony Braxton"
TITLE "Ten Compositions (Quartet) 2000"
FILE "Anthony Braxton - Ten Compositions (Quartet) 2000.ape" WAVE
TRACK 01 AUDIO
TITLE "Virgo"
PERFORMER "Anthony Braxton"
INDEX 01 00:00:00
TRACK 02 AUDIO
TITLE "New Arrival"
PERFORMER "Anthony Braxton"
INDEX 00 12:04:11
INDEX 01 12:07:68
TRACK 03 AUDIO
TITLE "McNeil Island"
PERFORMER "Anthony Braxton"
INDEX 00 20:27:15
INDEX 01 20:30:50
TRACK 04 AUDIO
TITLE "Black Monday"
PERFORMER "Anthony Braxton"
INDEX 00 23:20:12
INDEX 01 23:23:63
TRACK 05 AUDIO
TITLE "C-Bop"
PERFORMER "Anthony Braxton"
INDEX 00 29:06:05
INDEX 01 29:09:47
TRACK 06 AUDIO
TITLE "Pumpkin - take 2"
PERFORMER "Anthony Braxton"
INDEX 00 40:02:15
INDEX 01 40:05:50
TRACK 07 AUDIO
TITLE "Alfred - take 2"
PERFORMER "Anthony Braxton"
INDEX 00 45:45:22
INDEX 01 45:48:60
TRACK 08 AUDIO
TITLE "Griots"
PERFORMER "Anthony Braxton"
INDEX 00 50:17:30
INDEX 01 50:21:15
TRACK 09 AUDIO
TITLE "No Doubt - take 2"
PERFORMER "Anthony Braxton"
INDEX 00 53:16:45
INDEX 01 53:20:14
TRACK 10 AUDIO
TITLE "Lo Joe - take 3"
PERFORMER "Anthony Braxton"
INDEX 00 56:29:53
INDEX 01 56:33:20
 
Об исполнителе (группе)
Anthony Braxton carries with him many of the trappings of genius. A predilection for sudden and unexpected shifts in theoretical and praxical direction, a wholly original and often incomprehensible method of notating his ideas, a tendency to pursue individual innovations to point that many outside observers might deem excess- all of these are part of his artistic and philosophical persona. Given his many idiosyncrasies Braxton has often butted heads with the powers that be both within and without the boundaries of whatever is considered jazz. There have been many detractors over the years that collectively have assaulted everything from the ways he plays his instruments to the ways in which he teaches his students. Through recurring hailstorms of critique he has endured, following his own highly individual course and in the process challenging and changing the fabric of modern music.
In the time I've personally been aware of his music I've become lost or disinterested on numerous occasions, most recently with his epic operatic endeavor Trillium R, which to me was a project ill served by the way in which it was packaged and released. Another area that causes me to continually scratch my head is his seemingly unending Ghost Trance series. But balancing these more enigmatic offerings are such momentous entries as the various documents of his Willisau Quartet with Marilyn Crispell, Mark Dresser and Gerry Hemingway and his earlier quartets with the likes of George Lewis, Dave Holland and Barry Altschul- all seminal stuff by my estimation. Falling somewhere in between these two poles is his new project on CIMP, the first part of which is presented on this disc.
Drawing heavily on the post-bop songbooks of 60s icons Andrew Hill and George Coleman Braxton's quartet almost approximates the sound of a forward thinking Blue Note era hard bop band. Programmatically speaking it has antecedents in earlier projects like his pair of In the Tradition albums for Steeplechase and later tribute vehicles like The Charlie Parker Project and Eight (+3) Tristano Compostions (both on Hat Art). Hearing Braxton's ripe interpretations of these classic compositions is consistently captivating treat. His sound on alto edges deliciously close to soprano range and his acrobatic agility at defying harmonic/melodic strictures is often the only hint at freer leanings. His sidemen two of who are former pupils, fit perfectly into his designs. O'Neil takes on the role of hard bop plectrist, but still evidences the speed and veracity of a plucker well versed in the rigors of free improvisation. Norton moves from colorful texturalist to propulsive catalyst crafting a
variety of engaging rhythms and Eulau often offers up flexible walking support.
As is often his custom Braxton offers ample explanation of his chosen shift in direction in the accompanying liners and his copious reflections make for a very interesting read. Braxtonian purists (is there such a group given the man's relentless reinvention?) may be dismayed by their hero's embrace of hard bop-associated material, but those among them willing to look past the sources will no doubt see indications of his enduring genius. For me it's simply a pleasure hearing him play in a setting that is fresh and vibrant by comparison to some of the other avenues he's been opting for expression of his undeniable talent. Here's hoping that the soon to be released second volume works just as well.
 
Состав
Anthony Braxton: alto saxophone, flute
Kevin O'Neil: guitar
Andy Eulau: bass
Kevin Norton: drums
По всем вопросам пишите личное сообщение пользователю M0p94ok.
09:41
196
Нет комментариев. Ваш будет первым!