Вы используете незарегистрированную версию компонента "Вкладки"!

Поиск

(Avant-Garde, Free Jazz) Archie Shepp — Yasmina, A Black Woman (1969) — 1995, FLAC (image+.cue) lossless

(Avant-Garde, Free Jazz) Archie Shepp — Yasmina, A Black Woman (1969) — 1995, FLAC (image+.cue) lossless
Треклист:
Archie Shepp — Yasmina, A Black Woman (1969)
Жанр: Avant-Garde, Free Jazz
Год издания диска: 1995
Издатель (лейбл): Charly Records/Le Jazz
Номер по каталогу: CD 51
Аудио кодек: FLAC (*.flac)
Тип рипа: image+.cue
Битрейт аудио: lossless
Продолжительность: 40:43
Риппер: intothe
Сканы есть
Треклист:
01. Yasmina, A Black Woman (20:12)
02. Sonny's Back (14:08)
03. Body and Soul (6:24)
Personnel:
Archie Shepp - ts, vo (1)
Clifford Thornton - cor (1)
Lester Bowi - tp (1)
Arthur Jones - as (1)
Hank Mobley - ts (2)
Roscoe Mitchell - bsx (1)
Dave Burrell - p
Malachi Favors - b
Earl Freeman - b (1)
Philly Joe Jones - d
Sunny Murray - d & perc (1)
Art Talor - rhithm logs (1)
Laurence Devereaux - bal (1)
Rec.: Paris, August 12, 1969.
 
Лог создания рипа
Exact Audio Copy V0.99 prebeta 5 from 4. May 2009
EAC extraction logfile from 14. March 2011, 8:00
Archie Shepp / Yasmina, A Black Woman
Used drive : _NEC DVD_RW ND-3500AG Adapter: 0 ID: 0
Read mode : Secure
Utilize accurate stream : Yes
Defeat audio cache : Yes
Make use of C2 pointers : No
Read offset correction : 48
Overread into Lead-In and Lead-Out : No
Fill up missing offset samples with silence : Yes
Delete leading and trailing silent blocks : No
Null samples used in CRC calculations : Yes
Used interface : Native Win32 interface for Win NT & 2000
Used output format : User Defined Encoder
Selected bitrate : 768 kBit/s
Quality : High
Add ID3 tag : No
Command line compressor : C:\Program Files\Exact Audio Copy\FLAC\FLAC.EXE
Additional command line options : -6 -V -T "ARTIST=%a" -T "TITLE=%t" -T "ALBUM=%g" -T "DATE=%y" -T "TRACKNUMBER=%n" -T "GENRE=%m" -T "COMMENT=%e" %s -o %d
TOC of the extracted CD
Track | Start | Length | Start sector | End sector
---------------------------------------------------------
1 | 0:00.00 | 20:12.05 | 0 | 90904
2 | 20:12.05 | 14:07.45 | 90905 | 154474
3 | 34:19.50 | 6:23.42 | 154475 | 183241
Range status and errors
Selected range
Filename J:\eMusic\Rip\Archie Shepp - Yasmina, A Black Woman.wav
Peak level 88.4 %
Range quality 100.0 %
Test CRC BA1B83DC
Copy CRC BA1B83DC
Copy OK
No errors occurred
AccurateRip summary
Track 1 accurately ripped (confidence 2) [FE54020D]
Track 2 accurately ripped (confidence 2) [19A40C07]
Track 3 accurately ripped (confidence 2) [590E94F2]
All tracks accurately ripped
End of status report
 
Содержание индексной карты (.CUE)
REM GENRE Jazz
REM DATE 1969
REM DISCID 13098B03
REM COMMENT "ExactAudioCopy v0.99pb5"
PERFORMER "Archie Shepp"
TITLE "Yasmina, A Black Woman"
FILE "Archie Shepp - Yasmina, A Black Woman.flac" WAVE
TRACK 01 AUDIO
TITLE "Yasmina, A Black Woman"
PERFORMER "Archie Shepp"
INDEX 01 00:00:00
TRACK 02 AUDIO
TITLE "Sonny's Back"
PERFORMER "Archie Shepp"
INDEX 00 20:08:32
INDEX 01 20:12:05
TRACK 03 AUDIO
TITLE "Body and Soul"
PERFORMER "Archie Shepp"
INDEX 00 34:16:02
INDEX 01 34:19:50
По всем вопросам пишите личное сообщение пользователю M0p94ok.
09:42
192
Нет комментариев. Ваш будет первым!