Вы используете незарегистрированную версию компонента "Вкладки"!

Поиск

(Avant-Garde Jazz, Free Improvisation, NoBusiness Records) [CD] Terrence McManus, Mark Helias, Gerry Hemingway - Transcendental Numbers - 2011, FLAC (tracks+.cue), lossless

(Avant-Garde Jazz, Free Improvisation, NoBusiness Records) [CD] Terrence McManus, Mark Helias, Gerry Hemingway - Transcendental Numbers - 2011, FLAC (tracks+.cue), lossless
Треклист:
Terrence McManus, Mark Helias, Gerry Hemingway / Transcendental Numbers
Жанр: Avant-Garde Jazz, Free Improvisation, NoBusiness Records
Носитель: CD
Страна-производитель диска: Lithuania
Год издания: 2011
Издатель (лейбл): NoBusiness Records
Номер по каталогу: NBCD 27
Страна: US
Аудиокодек: FLAC (*.flac)
Тип рипа: tracks+.cue
Битрейт аудио: lossless
Продолжительность: 55:17
Источник (релизер): свой фирменный диск
Наличие сканов в содержимом раздачи:
Треклист:
1. Written In The Cracking Of The Ice 6:25
2. Upperside 9:04
3. Junction 12:20
4. Products Of Primes 9:55
5. The Radio Astronomers 12:05
6. When We First Left The Oceans 5:32
 
Лог создания рипа
Exact Audio Copy V1.0 beta 3 from 29. August 2011
EAC extraction logfile from 21. April 2014, 23:50
Terrence McManus, Mark Helias, Gerry Hemingway / Transcendental Numbers
Used drive : PIONEER DVD-RW DVR-115D Adapter: 0 ID: 0
Read mode : Secure
Utilize accurate stream : Yes
Defeat audio cache : Yes
Make use of C2 pointers : No
Read offset correction : 48
Overread into Lead-In and Lead-Out : No
Fill up missing offset samples with silence : Yes
Delete leading and trailing silent blocks : No
Null samples used in CRC calculations : Yes
Used interface : Installed external ASPI interface
Gap handling : Appended to previous track
Used output format : User Defined Encoder
Selected bitrate : 896 kBit/s
Quality : High
Add ID3 tag : No
Command line compressor : C:\Program Files\Exact Audio Copy\FLAC\FLAC.EXE
Additional command line options : -6 -V -T "ARTIST=%artist%" -T "TITLE=%title%" -T "ALBUM=%albumtitle%" -T "DATE=%year%" -T "TRACKNUMBER=%tracknr%" -T "GENRE=%genre%" -T "COMMENT=%comment%" -T "BAND=%albuminterpret%" -T "COMPOSER=%composer%" %haslyrics%--tag-from-file=LYRICS="%lyricsfile%"%haslyrics% -T "DISCNUMBER=%cdnumber%" -T "TOTALDISCS=%totalcds%" -T "TOTALTRACKS=%numtracks%" %hascover%--picture="%coverfile%"%hascover% %source% -o %dest%
TOC of the extracted CD
Track | Start | Length | Start sector | End sector
---------------------------------------------------------
1 | 0:00.02 | 6:24.03 | 2 | 28804
2 | 6:24.05 | 9:03.34 | 28805 | 69563
3 | 15:27.39 | 12:18.70 | 69564 | 124983
4 | 27:46.34 | 9:54.41 | 124984 | 169574
5 | 37:41.00 | 12:04.74 | 169575 | 223948
6 | 49:45.74 | 5:31.35 | 223949 | 248808
Track 1
Filename D:\zzz\01 - Written In The Cracking Of The Ice.wav
Pre-gap length 0:00:02.02
Peak level 96.6 %
Extraction speed 1.7 X
Track quality 100.0 %
Test CRC 46460FDB
Copy CRC 46460FDB
Track not present in AccurateRip database
Copy OK
Track 2
Filename D:\zzz\02 - Upperside.wav
Pre-gap length 0:00:03.00
Peak level 96.6 %
Extraction speed 1.9 X
Track quality 99.9 %
Test CRC ADCBCE70
Copy CRC ADCBCE70
Track not present in AccurateRip database
Copy OK
Track 3
Filename D:\zzz\03 - Junction.wav
Pre-gap length 0:00:03.00
Peak level 96.6 %
Extraction speed 2.4 X
Track quality 100.0 %
Test CRC D58F5F3D
Copy CRC D58F5F3D
Track not present in AccurateRip database
Copy OK
Track 4
Filename D:\zzz\04 - Products Of Primes.wav
Pre-gap length 0:00:03.00
Peak level 96.6 %
Extraction speed 2.7 X
Track quality 100.0 %
Test CRC 4EBCD809
Copy CRC 4EBCD809
Track not present in AccurateRip database
Copy OK
Track 5
Filename D:\zzz\05 - The Radio Astronomers.wav
Pre-gap length 0:00:03.00
Peak level 96.6 %
Extraction speed 3.0 X
Track quality 100.0 %
Test CRC E26F29C0
Copy CRC E26F29C0
Track not present in AccurateRip database
Copy OK
Track 6
Filename D:\zzz\06 - When We First Left The Oceans.wav
Pre-gap length 0:00:03.00
Peak level 72.6 %
Extraction speed 3.1 X
Track quality 100.0 %
Test CRC CC7034E7
Copy CRC CC7034E7
Track not present in AccurateRip database
Copy OK
None of the tracks are present in the AccurateRip database
No errors occurred
End of status report
==== Log checksum 7421C2078E06C6535403B94EF72B5CF3DB4611C5494A8A65B07B94339FC70FF0 ====
 
Содержание индексной карты (.CUE)
REM GENRE "Free Improvisation"
REM DATE 2011
REM DISCID 630CF506
REM COMMENT "ExactAudioCopy v1.0b3"
PERFORMER "Terrence McManus, Mark Helias, Gerry Hemingway"
TITLE "Transcendental Numbers"
FILE "01 - Written In The Cracking Of The Ice.wav" WAVE
TRACK 01 AUDIO
TITLE "Written In The Cracking Of The Ice"
PERFORMER "Terrence McManus, Mark Helias, Gerry Hemingway"
PREGAP 00:00:02
INDEX 01 00:00:00
TRACK 02 AUDIO
TITLE "Upperside"
PERFORMER "Terrence McManus, Mark Helias, Gerry Hemingway"
INDEX 00 06:21:03
FILE "02 - Upperside.wav" WAVE
INDEX 01 00:00:00
TRACK 03 AUDIO
TITLE "Junction"
PERFORMER "Terrence McManus, Mark Helias, Gerry Hemingway"
INDEX 00 09:00:34
FILE "03 - Junction.wav" WAVE
INDEX 01 00:00:00
TRACK 04 AUDIO
TITLE "Products Of Primes"
PERFORMER "Terrence McManus, Mark Helias, Gerry Hemingway"
INDEX 00 12:15:70
FILE "04 - Products Of Primes.wav" WAVE
INDEX 01 00:00:00
TRACK 05 AUDIO
TITLE "The Radio Astronomers"
PERFORMER "Terrence McManus, Mark Helias, Gerry Hemingway"
INDEX 00 09:51:41
FILE "05 - The Radio Astronomers.wav" WAVE
INDEX 01 00:00:00
TRACK 06 AUDIO
TITLE "When We First Left The Oceans"
PERFORMER "Terrence McManus, Mark Helias, Gerry Hemingway"
INDEX 00 12:01:74
FILE "06 - When We First Left The Oceans.wav" WAVE
INDEX 01 00:00:00
 
Лог проверки качества
d:\>d:\aucdtect -d/-m0 d:\zzz\*.wav
auCDtect: CD records authenticity detector, version 0.8.2
Copyright (c) 2004 Oleg Berngardt. All rights reserved.
Copyright (c) 2004 Alexander Djourik. All rights reserved.
------------------------------------------------------------
Processing file: [01. Written In The Cracking Of The Ice.wav]
------------------------------------------------------------
This track looks like CDDA with probability 100%
------------------------------------------------------------
Processing file: [02. Upperside.wav]
------------------------------------------------------------
This track looks like CDDA with probability 100%
------------------------------------------------------------
Processing file: [03. Junction.wav]
------------------------------------------------------------
This track looks like CDDA with probability 100%
------------------------------------------------------------
Processing file: [04. Products Of Primes.wav]
------------------------------------------------------------
This track looks like CDDA with probability 100%
------------------------------------------------------------
Processing file: [05. The Radio Astronomers.wav]
------------------------------------------------------------
This track looks like CDDA with probability 100%
------------------------------------------------------------
Processing file: [06. When We First Left The Oceans.wav]
------------------------------------------------------------
This track looks like CDDA with probability 100%
------------------------------------------------------------
Final Conclusion:
------------------------------------------------------------
These tracks looks like CDDA with probability 100%
Доп. информация:
 
Album Info & AAJ Review
All compositions by Terrence McManus, Mark Helias, Gerry Hemingway
Recorded live on January 1, 2009 at The Stone, New York, NY by Joseph Branciforte
Pre-mastering audio editing by Terrence McManus
Photo of Terrence McManus by Lucy McManus
Photo of Mark Helias by Mo Daoud
Photo of Gerry Hemingway by Jordan Hemingway
The guitar played on this recording was built by Terrence McManus
Mastered by Arunas Zujus at MAMAstudios
Design by Oskaras Anosovas
Produced by Terrence McManus and Danas Mikailionis
Co-producer: Valerij Anosov
Liner notes: Terrence McManus, November 2010
Limited Edition of 500 cd's
Guitarist Terrence McManus helms a stellar trio on Transcendental Numbers, through six collective concoctions recorded in New York City's The Stone, straddling and blurring the line between textural improvisation and the more traditional sound of guitar and rhythm section. Brooklyn-born McManus is carving a niche for himself on the scene. Having worked with drummer/composer Tyshawn Sorey, and performed with fellow guitarist Bill Frisell and saxophonist John Zorn, McManus is currently a member of drummer Gerry Hemingway's quintet, and finds his boss returning the favor here.
With an association dating back more than 33 years, the synergy of Hemingway and bassist Mark Helias is a wonder to behold. The pair first came together in the orbit of reed man Anthony Braxton, but they have been featured in each others bands many times since, most notably the cooperative BassDrumBone, along with trombonist Ray Anderson. Alongside their vast experience they also wield an armory of extended techniques which they delve into with gusto, making this a set which would also have been fascinating to witness live.
The breadth of unconventional sounds for guitar trio is reminiscent of guitarist Bruce Eisenbeil with Totem> on Solar Forge (ESP, 2008), though the overall ethos is not one of such complete deconstruction. Even though there are passages when there is no hint of tune, melody or meter, there is still a sense of form and trajectory, whether it is the steadily increasing crescendo of "When We First Left The Oceans" or the bell-shaped curve of "The Radio Astronomers." While the threesome flaunts the intensity of a power trio the density is reduced, so there is lots of air in many of the pieces which allows full appreciation of the constituent parts.
At times the bass and drums slip into their regular roles as on "Upperside" where McManus builds a statement of incisive, insistent phrases and broad slashes over a conversational mid-tempo. Likewise on "Junction" mournful horn-like phrasing from the guitar with blues intimations sparks a loose choppy groove from Helias and Hemingway and an impromptu riff from McManus. "Products of Primes" deals in flinty improv with the bassist's sweeping arco prominent, pitched against white noise guitar and thudding percussion, before evolving into a propulsive churn.
Transcendental Numbers shows where the guitar trio might go without totally severing the links to the instrument's vernacular.
 
Состав
Terrence McManus: guitar
Mark Helias: bass
Gerry Hemingway: drums
По всем вопросам пишите личное сообщение пользователю M0p94ok.
02:32
193
Нет комментариев. Ваш будет первым!