Поиск

(Avant-Garde Jazz, Free Improvisation, Nine Winds) [CD] Marcello Blanco & Stephen Flinn - We Mean It - 2000, FLAC (tracks+.cue), lossless

(Avant-Garde Jazz, Free Improvisation, Nine Winds) [CD] Marcello Blanco & Stephen Flinn - We Mean It - 2000, FLAC (tracks+.cue), lossless
Marcello Blanco & Stephen Flinn / We Mean It
Жанр: Avant-Garde Jazz, Free Improvisation, Nine Winds
Носитель: CD
Страна-производитель диска: US
Год издания: 2000
Издатель (лейбл): 9 Winds Records
Номер по каталогу: NWCD0251
Страна: US
Аудиокодек: FLAC (*.flac)
Тип рипа: tracks+.cue
Битрейт аудио: lossless
Продолжительность: 41:17
Источник (релизер): свой фирменный диск
Наличие сканов в содержимом раздачи:
Треклист:
1. Vice
2. Toss
3. Rub
4. Trilling
5. Hat
6. Blast
7. Buzz
8. Metaphor
9. Paragenesis
10. Dream
11. Lift
12. Birdsong
13. Slang
14. Marianna
15. Breathe
16. Quirky
17. Bowed
18. Iron
19. Leaving
 
Лог создания рипа
Exact Audio Copy V1.0 beta 3 from 29. August 2011
EAC extraction logfile from 12. March 2014, 18:36
Marcello Blanco & Stephen Flinn / We Mean It
Used drive : PIONEER DVD-RW DVR-115D Adapter: 0 ID: 0
Read mode : Secure
Utilize accurate stream : Yes
Defeat audio cache : Yes
Make use of C2 pointers : No
Read offset correction : 48
Overread into Lead-In and Lead-Out : No
Fill up missing offset samples with silence : Yes
Delete leading and trailing silent blocks : No
Null samples used in CRC calculations : Yes
Used interface : Installed external ASPI interface
Gap handling : Appended to previous track
Used output format : User Defined Encoder
Selected bitrate : 896 kBit/s
Quality : High
Add ID3 tag : No
Command line compressor : C:\Program Files\Exact Audio Copy\FLAC\FLAC.EXE
Additional command line options : -6 -V -T "ARTIST=%artist%" -T "TITLE=%title%" -T "ALBUM=%albumtitle%" -T "DATE=%year%" -T "TRACKNUMBER=%tracknr%" -T "GENRE=%genre%" -T "COMMENT=%comment%" -T "BAND=%albuminterpret%" -T "COMPOSER=%composer%" %haslyrics%--tag-from-file=LYRICS="%lyricsfile%"%haslyrics% -T "DISCNUMBER=%cdnumber%" -T "TOTALDISCS=%totalcds%" -T "TOTALTRACKS=%numtracks%" %hascover%--picture="%coverfile%"%hascover% %source% -o %dest%
TOC of the extracted CD
Track | Start | Length | Start sector | End sector
---------------------------------------------------------
1 | 0:00.00 | 2:04.67 | 0 | 9366
2 | 2:04.67 | 1:19.14 | 9367 | 15305
3 | 3:24.06 | 1:05.02 | 15306 | 20182
4 | 4:29.08 | 5:23.72 | 20183 | 44479
5 | 9:53.05 | 0:45.65 | 44480 | 47919
6 | 10:38.70 | 3:07.57 | 47920 | 62001
7 | 13:46.52 | 1:28.04 | 62002 | 68605
8 | 15:14.56 | 4:01.28 | 68606 | 86708
9 | 19:16.09 | 3:24.60 | 86709 | 102068
10 | 22:40.69 | 1:24.12 | 102069 | 108380
11 | 24:05.06 | 2:23.45 | 108381 | 119150
12 | 26:28.51 | 2:50.09 | 119151 | 131909
13 | 29:18.60 | 0:53.20 | 131910 | 135904
14 | 30:12.05 | 1:48.00 | 135905 | 144004
15 | 32:00.05 | 1:27.64 | 144005 | 150593
16 | 33:27.69 | 1:03.08 | 150594 | 155326
17 | 34:31.02 | 1:45.15 | 155327 | 163216
18 | 36:16.17 | 2:22.19 | 163217 | 173885
19 | 38:38.36 | 2:39.13 | 173886 | 185823
Track 1
Filename D:\zzz\01 - Vice.wav
Pre-gap length 0:00:02.00
Peak level 98.8 %
Extraction speed 3.7 X
Track quality 100.0 %
Test CRC F614635E
Copy CRC F614635E
Track not present in AccurateRip database
Copy OK
Track 2
Filename D:\zzz\02 - Toss.wav
Peak level 98.8 %
Extraction speed 3.5 X
Track quality 100.0 %
Test CRC 5323CB23
Copy CRC 5323CB23
Track not present in AccurateRip database
Copy OK
Track 3
Filename D:\zzz\03 - Rub.wav
Peak level 98.8 %
Extraction speed 3.3 X
Track quality 100.0 %
Test CRC 6D116D9C
Copy CRC 6D116D9C
Track not present in AccurateRip database
Copy OK
Track 4
Filename D:\zzz\04 - Trilling.wav
Peak level 98.8 %
Extraction speed 5.0 X
Track quality 100.0 %
Test CRC 5983FD45
Copy CRC 5983FD45
Track not present in AccurateRip database
Copy OK
Track 5
Filename D:\zzz\05 - Hat.wav
Peak level 21.6 %
Extraction speed 3.3 X
Track quality 100.0 %
Test CRC 4E83B7D5
Copy CRC 4E83B7D5
Track not present in AccurateRip database
Copy OK
Track 6
Filename D:\zzz\06 - Blast.wav
Peak level 98.8 %
Extraction speed 5.1 X
Track quality 100.0 %
Test CRC A1103BF2
Copy CRC A1103BF2
Track not present in AccurateRip database
Copy OK
Track 7
Filename D:\zzz\07 - Buzz.wav
Peak level 98.8 %
Extraction speed 4.5 X
Track quality 100.0 %
Test CRC F148E9FE
Copy CRC F148E9FE
Track not present in AccurateRip database
Copy OK
Track 8
Filename D:\zzz\08 - Metaphor.wav
Peak level 99.8 %
Extraction speed 5.1 X
Track quality 99.9 %
Test CRC 363615E4
Copy CRC 363615E4
Track not present in AccurateRip database
Copy OK
Track 9
Filename D:\zzz\09 - Paragenesis.wav
Peak level 93.1 %
Extraction speed 5.9 X
Track quality 100.0 %
Test CRC AD1A4E20
Copy CRC AD1A4E20
Track not present in AccurateRip database
Copy OK
Track 10
Filename D:\zzz\10 - Dream.wav
Peak level 98.8 %
Extraction speed 4.9 X
Track quality 100.0 %
Test CRC DFFF2CCE
Copy CRC DFFF2CCE
Track not present in AccurateRip database
Copy OK
Track 11
Filename D:\zzz\11 - Lift.wav
Peak level 98.8 %
Extraction speed 5.8 X
Track quality 100.0 %
Test CRC FFDD7986
Copy CRC FFDD7986
Track not present in AccurateRip database
Copy OK
Track 12
Filename D:\zzz\12 - Birdsong.wav
Peak level 76.3 %
Extraction speed 6.1 X
Track quality 100.0 %
Test CRC D0EAA33D
Copy CRC D0EAA33D
Track not present in AccurateRip database
Copy OK
Track 13
Filename D:\zzz\13 - Slang.wav
Peak level 98.8 %
Extraction speed 4.5 X
Track quality 100.0 %
Test CRC 2F234293
Copy CRC 2F234293
Track not present in AccurateRip database
Copy OK
Track 14
Filename D:\zzz\14 - Marianna.wav
Peak level 98.8 %
Extraction speed 5.7 X
Track quality 100.0 %
Test CRC C994E944
Copy CRC C994E944
Track not present in AccurateRip database
Copy OK
Track 15
Filename D:\zzz\15 - Breathe.wav
Peak level 43.6 %
Extraction speed 5.5 X
Track quality 100.0 %
Test CRC 04AB89AB
Copy CRC 04AB89AB
Track not present in AccurateRip database
Copy OK
Track 16
Filename D:\zzz\16 - Quirky.wav
Peak level 98.8 %
Extraction speed 4.9 X
Track quality 100.0 %
Test CRC A169A0C8
Copy CRC A169A0C8
Track not present in AccurateRip database
Copy OK
Track 17
Filename D:\zzz\17 - Bowed.wav
Peak level 90.4 %
Extraction speed 5.9 X
Track quality 100.0 %
Test CRC F04D3BF6
Copy CRC F04D3BF6
Track not present in AccurateRip database
Copy OK
Track 18
Filename D:\zzz\18 - Iron.wav
Peak level 91.2 %
Extraction speed 6.4 X
Track quality 100.0 %
Test CRC B83D9B20
Copy CRC B83D9B20
Track not present in AccurateRip database
Copy OK
Track 19
Filename D:\zzz\19 - Leaving.wav
Peak level 98.8 %
Extraction speed 6.7 X
Track quality 100.0 %
Test CRC E72F0B1B
Copy CRC E72F0B1B
Track not present in AccurateRip database
Copy OK
None of the tracks are present in the AccurateRip database
No errors occurred
End of status report
==== Log checksum 6834DE2AAFEAA3AE582D723DB1B57CE3EABA000EB55591B0C947A984D8DF3650 ====
 
Содержание индексной карты (.CUE)
REM GENRE "Avant-Garde Jazz"
REM DATE 2000
REM DISCID F009AD13
REM COMMENT "ExactAudioCopy v1.0b3"
PERFORMER "Marcello Blanco & Stephen Flinn"
TITLE "We Mean It"
FILE "01 - Vice.wav" WAVE
TRACK 01 AUDIO
TITLE "Vice"
PERFORMER "Marcello Blanco & Stephen Flinn"
INDEX 01 00:00:00
FILE "02 - Toss.wav" WAVE
TRACK 02 AUDIO
TITLE "Toss"
PERFORMER "Marcello Blanco & Stephen Flinn"
INDEX 01 00:00:00
FILE "03 - Rub.wav" WAVE
TRACK 03 AUDIO
TITLE "Rub"
PERFORMER "Marcello Blanco & Stephen Flinn"
INDEX 01 00:00:00
FILE "04 - Trilling.wav" WAVE
TRACK 04 AUDIO
TITLE "Trilling"
PERFORMER "Marcello Blanco & Stephen Flinn"
INDEX 01 00:00:00
FILE "05 - Hat.wav" WAVE
TRACK 05 AUDIO
TITLE "Hat"
PERFORMER "Marcello Blanco & Stephen Flinn"
INDEX 01 00:00:00
FILE "06 - Blast.wav" WAVE
TRACK 06 AUDIO
TITLE "Blast"
PERFORMER "Marcello Blanco & Stephen Flinn"
INDEX 01 00:00:00
FILE "07 - Buzz.wav" WAVE
TRACK 07 AUDIO
TITLE "Buzz"
PERFORMER "Marcello Blanco & Stephen Flinn"
INDEX 01 00:00:00
FILE "08 - Metaphor.wav" WAVE
TRACK 08 AUDIO
TITLE "Metaphor"
PERFORMER "Marcello Blanco & Stephen Flinn"
INDEX 01 00:00:00
FILE "09 - Paragenesis.wav" WAVE
TRACK 09 AUDIO
TITLE "Paragenesis"
PERFORMER "Marcello Blanco & Stephen Flinn"
INDEX 01 00:00:00
FILE "10 - Dream.wav" WAVE
TRACK 10 AUDIO
TITLE "Dream"
PERFORMER "Marcello Blanco & Stephen Flinn"
INDEX 01 00:00:00
FILE "11 - Lift.wav" WAVE
TRACK 11 AUDIO
TITLE "Lift"
PERFORMER "Marcello Blanco & Stephen Flinn"
INDEX 01 00:00:00
FILE "12 - Birdsong.wav" WAVE
TRACK 12 AUDIO
TITLE "Birdsong"
PERFORMER "Marcello Blanco & Stephen Flinn"
INDEX 01 00:00:00
FILE "13 - Slang.wav" WAVE
TRACK 13 AUDIO
TITLE "Slang"
PERFORMER "Marcello Blanco & Stephen Flinn"
INDEX 01 00:00:00
FILE "14 - Marianna.wav" WAVE
TRACK 14 AUDIO
TITLE "Marianna"
PERFORMER "Marcello Blanco & Stephen Flinn"
INDEX 01 00:00:00
FILE "15 - Breathe.wav" WAVE
TRACK 15 AUDIO
TITLE "Breathe"
PERFORMER "Marcello Blanco & Stephen Flinn"
INDEX 01 00:00:00
FILE "16 - Quirky.wav" WAVE
TRACK 16 AUDIO
TITLE "Quirky"
PERFORMER "Marcello Blanco & Stephen Flinn"
INDEX 01 00:00:00
FILE "17 - Bowed.wav" WAVE
TRACK 17 AUDIO
TITLE "Bowed"
PERFORMER "Marcello Blanco & Stephen Flinn"
INDEX 01 00:00:00
FILE "18 - Iron.wav" WAVE
TRACK 18 AUDIO
TITLE "Iron"
PERFORMER "Marcello Blanco & Stephen Flinn"
INDEX 01 00:00:00
FILE "19 - Leaving.wav" WAVE
TRACK 19 AUDIO
TITLE "Leaving"
PERFORMER "Marcello Blanco & Stephen Flinn"
INDEX 01 00:00:00
 
Лог проверки качества
d:\>d:\aucdtect -d/-m0 d:\zzz\*.wav
auCDtect: CD records authenticity detector, version 0.8.2
Copyright (c) 2004 Oleg Berngardt. All rights reserved.
Copyright (c) 2004 Alexander Djourik. All rights reserved.
------------------------------------------------------------
Processing file: [01. Vice.wav]
------------------------------------------------------------
This track looks like CDDA with probability 100%
------------------------------------------------------------
Processing file: [02. Toss.wav]
------------------------------------------------------------
This track looks like CDDA with probability 100%
------------------------------------------------------------
Processing file: [03. Rub.wav]
------------------------------------------------------------
This track looks like CDDA with probability 100%
------------------------------------------------------------
Processing file: [04. Trilling.wav]
------------------------------------------------------------
This track looks like CDDA with probability 100%
------------------------------------------------------------
Processing file: [05. Hat.wav]
------------------------------------------------------------
This track looks like CDDA with probability 100%
------------------------------------------------------------
Processing file: [06. Blast.wav]
------------------------------------------------------------
This track looks like CDDA with probability 100%
------------------------------------------------------------
Processing file: [07. Buzz.wav]
------------------------------------------------------------
This track looks like CDDA with probability 100%
------------------------------------------------------------
Processing file: [08. Metaphor.wav]
------------------------------------------------------------
This track looks like CDDA with probability 100%
------------------------------------------------------------
Processing file: [09. Paragenesis.wav]
------------------------------------------------------------
This track looks like CDDA with probability 100%
------------------------------------------------------------
Processing file: [10. Dream.wav]
------------------------------------------------------------
This track looks like CDDA with probability 100%
------------------------------------------------------------
Processing file: [11. Lift.wav]
------------------------------------------------------------
This track looks like CDDA with probability 99%
------------------------------------------------------------
Processing file: [12. Birdsong.wav]
------------------------------------------------------------
This track looks like CDDA with probability 100%
------------------------------------------------------------
Processing file: [13. Slang.wav]
------------------------------------------------------------
This track looks like CDDA with probability 100%
------------------------------------------------------------
Processing file: [14. Marianna.wav]
------------------------------------------------------------
This track looks like CDDA with probability 100%
------------------------------------------------------------
Processing file: [15. Breathe.wav]
------------------------------------------------------------
This track looks like CDDA with probability 100%
------------------------------------------------------------
Processing file: [16. Quirky.wav]
------------------------------------------------------------
This track looks like CDDA with probability 100%
------------------------------------------------------------
Processing file: [17. Bowed.wav]
------------------------------------------------------------
This track looks like CDDA with probability 100%
------------------------------------------------------------
Processing file: [18. Iron.wav]
------------------------------------------------------------
This track looks like CDDA with probability 100%
------------------------------------------------------------
Processing file: [19. Leaving.wav]
------------------------------------------------------------
This track looks like CDDA with probability 100%
------------------------------------------------------------
Final Conclusion:
------------------------------------------------------------
These tracks looks like CDDA with probability 100%
Доп. информация:
 
Album Info & AMG Review
All tracks composed by Marcello Blanco, Stephen Flinn
Recorded September 9, 2000 at Sorcerer Sound, New York City
Recorded by Patrick Derivaz
Produced by Stephen Flinn
Digital mastering by Hugo Dwyer
Cover art: "On The Corner" by Debora Iyall 1996
Art direction: Stephanie Mauer
Photography: Marianna Balquiedra
Stephen Flinn proudly endorses Keplinger snare drums
This short recording has its primitive charms, as Marcello Blanco uses his tenor sax as an extension of the proverbial primordial self. Playing in duo with percussionist Stephen Flinn, Blanco dominates with non-virtuosity -- not an easy task for a player with the obvious skills of the saxophonist. Blanco enjoys blowing not only softly but in a way that thumbs its nose at traditional techniques. Using air, multi-phonics, altered tones, occasional humor, and squeaks, while eschewing melody, swing, and the sort of loud and aggressive blasts that often characterize the Avant Garde, Blanco reveals the elemental aspects of free improvisation. This album won't appeal to everyone who is wedded to Free Jazz: It attracts for its independence, creative thrusts, and new perspectives, but the signposts take getting used to. Blanco boasts a nice full sound when he wants to (which is not often), but he rarely sustains runs of any duration, instead doodling and working out delightful short patterns. Flinn plays the role of instigator, spurring on the saxophonist, complementing him, and serving as color commentator. When Blanco whistles through his horn, the drummer lays down a roll, and elsewhere Flinn keeps it soft and simple. Sometimes the very short tracks express a single idea, often implied by the title of the "tune." Many of the pieces succeed due to a concentrated focus that rarely drifts, softening the highly abstract nature of most of this music and inviting the listener into a world that appears sui generis.
 
Состав
Marcello Blanco: tenor saxophone
Stephen Flinn: drums, percussion
00:43
348
Нет комментариев. Ваш будет первым!