Вы используете незарегистрированную версию компонента "Вкладки"!

Поиск

(Avant-Garde Jazz, Free Improvisation) Mark O'Leary, Tomasz Stanko, Billy Hart - Levitation - 2005, FLAC (tracks+.cue), lossless

(Avant-Garde Jazz, Free Improvisation) Mark O'Leary, Tomasz Stanko, Billy Hart - Levitation - 2005, FLAC (tracks+.cue), lossless
Треклист:
Mark O'Leary, Tomasz Stanko, Billy Hart / Levitation
Жанр: Avant-Garde Jazz, Free Improvisation
Страна-производитель диска: UK
Год издания: 2005
Издатель (лейбл): Leo Records
Номер по каталогу: CD LR 445
Страна: Ireland
Аудиокодек: FLAC (*.flac)
Тип рипа: tracks+.cue
Битрейт аудио: lossless
Продолжительность: 70:42
Источник (релизер): свой фирменный диск
Наличие сканов в содержимом раздачи: нет
Треклист:
1 Red Sand 4:50
2 Oblique 6:55
3 Mystic 6:15
4 Levitation 16:15
5 P.M. 6:35
6 A Theme I Used To Play 3:20
7 Giya 4:30
8 Astakhan 4:35
9 Amnesiak 1:00
10 A Walk In The Park With 1:35
11 Rite 1:02
12 Warm 2:40
13 Getting There 2:55
14 Phase 7:30
 
Лог создания рипа
Exact Audio Copy V1.0 beta 3 from 29. August 2011
EAC extraction logfile from 30. January 2013, 19:49
Mark O'Leary, Tomasz Stanko, Billy Hart / Levitation
Used drive : PIONEER DVD-RW DVR-115D Adapter: 0 ID: 0
Read mode : Secure
Utilize accurate stream : Yes
Defeat audio cache : Yes
Make use of C2 pointers : No
Read offset correction : 48
Overread into Lead-In and Lead-Out : No
Fill up missing offset samples with silence : Yes
Delete leading and trailing silent blocks : No
Null samples used in CRC calculations : Yes
Used interface : Installed external ASPI interface
Gap handling : Appended to previous track
Used output format : User Defined Encoder
Selected bitrate : 896 kBit/s
Quality : High
Add ID3 tag : No
Command line compressor : C:\Program Files\Exact Audio Copy\FLAC\FLAC.EXE
Additional command line options : -6 -V -T "ARTIST=%artist%" -T "TITLE=%title%" -T "ALBUM=%albumtitle%" -T "DATE=%year%" -T "TRACKNUMBER=%tracknr%" -T "GENRE=%genre%" -T "COMMENT=%comment%" -T "BAND=%albuminterpret%" -T "COMPOSER=%composer%" %haslyrics%--tag-from-file=LYRICS="%lyricsfile%"%haslyrics% -T "DISCNUMBER=%cdnumber%" -T "TOTALDISCS=%totalcds%" -T "TOTALTRACKS=%numtracks%" %hascover%--picture="%coverfile%"%hascover% %source% -o %dest%
TOC of the extracted CD
Track | Start | Length | Start sector | End sector
---------------------------------------------------------
1 | 0:00.00 | 4:51.29 | 0 | 21853
2 | 4:51.29 | 6:57.61 | 21854 | 53189
3 | 11:49.15 | 6:23.29 | 53190 | 81943
4 | 18:12.44 | 16:22.09 | 81944 | 155602
5 | 34:34.53 | 6:35.08 | 155603 | 185235
6 | 41:09.61 | 3:19.64 | 185236 | 200224
7 | 44:29.50 | 4:33.57 | 200225 | 220756
8 | 49:03.32 | 4:42.17 | 220757 | 241923
9 | 53:45.49 | 1:00.50 | 241924 | 246473
10 | 54:46.24 | 1:35.55 | 246474 | 253653
11 | 56:22.04 | 1:05.13 | 253654 | 258541
12 | 57:27.17 | 2:42.00 | 258542 | 270691
13 | 60:09.17 | 2:56.13 | 270692 | 283904
14 | 63:05.30 | 7:37.33 | 283905 | 318212
Track 1
Filename D:\zzz\01 - Red Sand.wav
Pre-gap length 0:00:02.00
Peak level 96.4 %
Extraction speed 1.6 X
Track quality 100.0 %
Test CRC 235F023C
Copy CRC 235F023C
Track not present in AccurateRip database
Copy OK
Track 2
Filename D:\zzz\02 - Oblique.wav
Pre-gap length 0:00:02.00
Peak level 100.0 %
Extraction speed 1.9 X
Track quality 100.0 %
Test CRC F9BD8BB3
Copy CRC F9BD8BB3
Track not present in AccurateRip database
Copy OK
Track 3
Filename D:\zzz\03 - Mystic.wav
Pre-gap length 0:00:02.00
Peak level 95.7 %
Extraction speed 2.2 X
Track quality 100.0 %
Test CRC 3322D20D
Copy CRC 3322D20D
Track not present in AccurateRip database
Copy OK
Track 4
Filename D:\zzz\04 - Levitation.wav
Pre-gap length 0:00:02.00
Peak level 100.0 %
Extraction speed 2.6 X
Track quality 100.0 %
Test CRC C79EF96C
Copy CRC C79EF96C
Track not present in AccurateRip database
Copy OK
Track 5
Filename D:\zzz\05 - P.M..wav
Pre-gap length 0:00:02.00
Peak level 98.6 %
Extraction speed 2.8 X
Track quality 100.0 %
Test CRC FDFDC0E6
Copy CRC FDFDC0E6
Track not present in AccurateRip database
Copy OK
Track 6
Filename D:\zzz\06 - A Theme I Used To Play.wav
Pre-gap length 0:00:02.00
Peak level 100.0 %
Extraction speed 2.3 X
Track quality 99.9 %
Test CRC 8CD52348
Copy CRC 8CD52348
Track not present in AccurateRip database
Copy OK
Track 7
Filename D:\zzz\07 - Giya.wav
Pre-gap length 0:00:02.00
Peak level 99.9 %
Extraction speed 2.9 X
Track quality 100.0 %
Test CRC 6C450555
Copy CRC 6C450555
Track not present in AccurateRip database
Copy OK
Track 8
Filename D:\zzz\08 - Astrakhan.wav
Pre-gap length 0:00:02.00
Peak level 100.0 %
Extraction speed 3.0 X
Track quality 100.0 %
Test CRC 963961CD
Copy CRC 963961CD
Track not present in AccurateRip database
Copy OK
Track 9
Filename D:\zzz\09 - Amnesiak.wav
Pre-gap length 0:00:02.00
Peak level 69.6 %
Extraction speed 2.1 X
Track quality 100.0 %
Test CRC 6764F3DB
Copy CRC 6764F3DB
Track not present in AccurateRip database
Copy OK
Track 10
Filename D:\zzz\10 - A Walk In The Park With.wav
Pre-gap length 0:00:02.00
Peak level 100.0 %
Extraction speed 2.5 X
Track quality 100.0 %
Test CRC BDF6830F
Copy CRC BDF6830F
Track not present in AccurateRip database
Copy OK
Track 11
Filename D:\zzz\11 - Rite.wav
Pre-gap length 0:00:02.00
Peak level 69.1 %
Extraction speed 2.2 X
Track quality 100.0 %
Test CRC BCC2B21E
Copy CRC BCC2B21E
Track not present in AccurateRip database
Copy OK
Track 12
Filename D:\zzz\12 - Warm.wav
Pre-gap length 0:00:02.00
Peak level 98.3 %
Extraction speed 2.4 X
Track quality 99.9 %
Test CRC CEE37608
Copy CRC CEE37608
Track not present in AccurateRip database
Copy OK
Track 13
Filename D:\zzz\13 - Getting There.wav
Pre-gap length 0:00:02.00
Peak level 100.0 %
Extraction speed 2.9 X
Track quality 100.0 %
Test CRC CA908400
Copy CRC CA908400
Track not present in AccurateRip database
Copy OK
Track 14
Filename D:\zzz\14 - Phase.wav
Pre-gap length 0:00:02.00
Peak level 100.0 %
Extraction speed 3.4 X
Track quality 100.0 %
Test CRC 71EE606D
Copy CRC 71EE606D
Track not present in AccurateRip database
Copy OK
None of the tracks are present in the AccurateRip database
No errors occurred
End of status report
==== Log checksum 6B8C6280E68FEAE9F3C4AC436EA88018B0DD57F08F8F7AFB284558E194FF8FB4 ====
 
Содержание индексной карты (.CUE)
REM GENRE Jazz
REM DATE 2005
REM DISCID D510920E
REM COMMENT "ExactAudioCopy v1.0b3"
PERFORMER "Mark O'Leary, Tomasz Stanko, Billy Hart"
TITLE "Levitation"
FILE "01 - Red Sand.wav" WAVE
TRACK 01 AUDIO
TITLE "Red Sand"
PERFORMER "Mark O'Leary, Tomasz Stanko, Billy Hart"
FLAGS DCP
INDEX 01 00:00:00
TRACK 02 AUDIO
TITLE "Oblique"
PERFORMER "Mark O'Leary, Tomasz Stanko, Billy Hart"
FLAGS DCP
INDEX 00 04:49:29
FILE "02 - Oblique.wav" WAVE
INDEX 01 00:00:00
TRACK 03 AUDIO
TITLE "Mystic"
PERFORMER "Mark O'Leary, Tomasz Stanko, Billy Hart"
FLAGS DCP
INDEX 00 06:55:61
FILE "03 - Mystic.wav" WAVE
INDEX 01 00:00:00
TRACK 04 AUDIO
TITLE "Levitation"
PERFORMER "Mark O'Leary, Tomasz Stanko, Billy Hart"
FLAGS DCP
INDEX 00 06:21:29
FILE "04 - Levitation.wav" WAVE
INDEX 01 00:00:00
TRACK 05 AUDIO
TITLE "P.M."
PERFORMER "Mark O'Leary, Tomasz Stanko, Billy Hart"
FLAGS DCP
INDEX 00 16:20:09
FILE "05 - P.M..wav" WAVE
INDEX 01 00:00:00
TRACK 06 AUDIO
TITLE "A Theme I Used To Play"
PERFORMER "Mark O'Leary, Tomasz Stanko, Billy Hart"
FLAGS DCP
INDEX 00 06:33:08
FILE "06 - A Theme I Used To Play.wav" WAVE
INDEX 01 00:00:00
TRACK 07 AUDIO
TITLE "Giya"
PERFORMER "Mark O'Leary, Tomasz Stanko, Billy Hart"
FLAGS DCP
INDEX 00 03:17:64
FILE "07 - Giya.wav" WAVE
INDEX 01 00:00:00
TRACK 08 AUDIO
TITLE "Astrakhan"
PERFORMER "Mark O'Leary, Tomasz Stanko, Billy Hart"
FLAGS DCP
INDEX 00 04:31:57
FILE "08 - Astrakhan.wav" WAVE
INDEX 01 00:00:00
TRACK 09 AUDIO
TITLE "Amnesiak"
PERFORMER "Mark O'Leary, Tomasz Stanko, Billy Hart"
FLAGS DCP
INDEX 00 04:40:17
FILE "09 - Amnesiak.wav" WAVE
INDEX 01 00:00:00
TRACK 10 AUDIO
TITLE "A Walk In The Park With"
PERFORMER "Mark O'Leary, Tomasz Stanko, Billy Hart"
FLAGS DCP
INDEX 00 00:58:50
FILE "10 - A Walk In The Park With.wav" WAVE
INDEX 01 00:00:00
TRACK 11 AUDIO
TITLE "Rite"
PERFORMER "Mark O'Leary, Tomasz Stanko, Billy Hart"
FLAGS DCP
INDEX 00 01:33:55
FILE "11 - Rite.wav" WAVE
INDEX 01 00:00:00
TRACK 12 AUDIO
TITLE "Warm"
PERFORMER "Mark O'Leary, Tomasz Stanko, Billy Hart"
FLAGS DCP
INDEX 00 01:03:13
FILE "12 - Warm.wav" WAVE
INDEX 01 00:00:00
TRACK 13 AUDIO
TITLE "Getting There"
PERFORMER "Mark O'Leary, Tomasz Stanko, Billy Hart"
FLAGS DCP
INDEX 00 02:40:00
FILE "13 - Getting There.wav" WAVE
INDEX 01 00:00:00
TRACK 14 AUDIO
TITLE "Phase"
PERFORMER "Mark O'Leary, Tomasz Stanko, Billy Hart"
FLAGS DCP
INDEX 00 02:54:13
FILE "14 - Phase.wav" WAVE
INDEX 01 00:00:00
 
Лог проверки качества
d:\>d:\aucdtect -d/-m0 d:\zzz\*.wav
auCDtect: CD records authenticity detector, version 0.8.2
Copyright (c) 2004 Oleg Berngardt. All rights reserved.
Copyright (c) 2004 Alexander Djourik. All rights reserved.
------------------------------------------------------------
Processing file: [01. Red Sand.wav]
------------------------------------------------------------
This track looks like CDDA with probability 100%
------------------------------------------------------------
Processing file: [02. Oblique.wav]
------------------------------------------------------------
This track looks like CDDA with probability 100%
------------------------------------------------------------
Processing file: [03. Mystic.wav]
------------------------------------------------------------
This track looks like CDDA with probability 100%
------------------------------------------------------------
Processing file: [04. Levitation.wav]
------------------------------------------------------------
This track looks like CDDA with probability 100%
------------------------------------------------------------
Processing file: [05. P.M..wav]
------------------------------------------------------------
This track looks like CDDA with probability 100%
------------------------------------------------------------
Processing file: [06. A Theme I Used To Play.wav]
------------------------------------------------------------
This track looks like CDDA with probability 100%
------------------------------------------------------------
Processing file: [07. Giya.wav]
------------------------------------------------------------
This track looks like CDDA with probability 100%
------------------------------------------------------------
Processing file: [08. Astrakhan.wav]
------------------------------------------------------------
This track looks like CDDA with probability 100%
------------------------------------------------------------
Processing file: [09. Amnesiak.wav]
------------------------------------------------------------
This track looks like CDDA with probability 100%
------------------------------------------------------------
Processing file: [10. A Walk In The Park With.wav]
------------------------------------------------------------
This track looks like CDDA with probability 100%
------------------------------------------------------------
Processing file: [11. Rite.wav]
------------------------------------------------------------
This track looks like CDDA with probability 100%
------------------------------------------------------------
Processing file: [12. Warm.wav]
------------------------------------------------------------
This track looks like CDDA with probability 100%
------------------------------------------------------------
Processing file: [13. Getting There.wav]
------------------------------------------------------------
This track looks like CDDA with probability 100%
------------------------------------------------------------
Processing file: [14. Phase.wav]
------------------------------------------------------------
This track looks like CDDA with probability 100%
------------------------------------------------------------
Final Conclusion:
------------------------------------------------------------
These tracks looks like CDDA with probability 100%
Доп. информация:
 
AMG Review
This is the third trio album by Mark O'Leary that Leo Records released in 2005, all with different lineups. Despite coming out a few months after Self-Luminous and Chamber Trio, Levitation was actually recorded before them, on December 12, 2000. This session features trumpeter Tomasz Stanko (a regular associate of Terje Rypdal and ECM star) and drummer Billy Hart. The big difference between this album and the previous ones is that it consists mostly of compositions. O'Leary's tunes occupy most of the first 50 minutes of the disc, the remaining 20 featuring short group improvisations. The guitarist's writing chops borrow a lot from structured improvisation; he sketches melodies and structures that leave a lot of room for variations and personal input from his colleagues. The 16-minute title track and the seven-minute "Oblique" are the undisputed highlights in that regard, tapping into the soul of ECM jazz to push that sound further into American modern free. The pairing of O'Leary's elegant guitar tone and Stanko's graceful phrasing is a perfect match, truly something to please fans of Bill Frisell, Terje Rypdal, and the whole ECM roster. O'Leary knows how to be light when the time is right ("Giya") and how to drive a piece over the edge when things are getting too comfortable. Levitation may be a bit more conventional than the previous two records, but it is definitely the place to start with O'Leary's work and a good pick for fans of Stanko (whose following largely exceeds the guitarist's).
 
Состав
Drums, Percussion – Billy Hart
Guitar – Mark O'Leary
Trumpet – Tomasz Stanko
Any questions - support@pro-jazz.com. Есть вопросы - support@pro-jazz.com
08:29
336
Нет комментариев. Ваш будет первым!