Вы используете незарегистрированную версию компонента "Вкладки"!

Поиск

(Avant-Garde Jazz, Free Improvisation) Mark O'Leary, Mat Maneri, Randy Peterson - Self-Luminous - 2005, FLAC (tracks+.cue), lossless

(Avant-Garde Jazz, Free Improvisation) Mark O'Leary, Mat Maneri, Randy Peterson - Self-Luminous - 2005, FLAC (tracks+.cue), lossless
Треклист:
Mark O'Leary, Mat Maneri, Randy Peterson / Self-Luminous
Жанр: Avant-Garde Jazz, Free Improvisation
Страна-производитель диска: UK
Год издания: 2005
Издатель (лейбл): Leo Records
Номер по каталогу: CD LR 426
Страна: Ireland
Аудиокодек: FLAC (*.flac)
Тип рипа: tracks+.cue
Битрейт аудио: lossless
Продолжительность: 61:46
Источник (релизер): свой фирменный диск
Наличие сканов в содержимом раздачи: нет
Треклист:
1 Self-Luminous 9:22
2 Camouflage 7:03
3 No Code 7:50
4 Concerned 6:33
5 Purple People 9:55
6 What's Your Name Again? 1:36
7 Sweet 4:14
8 Lilt 6:37
9 Smear 4:12
10 Alchemix 4:19
 
Лог создания рипа
Exact Audio Copy V1.0 beta 3 from 29. August 2011
EAC extraction logfile from 30. January 2013, 0:32
Mark O'Leary, Mat Maneri, Randy Peterson / Self-Luminous
Used drive : PIONEER DVD-RW DVR-115D Adapter: 0 ID: 0
Read mode : Secure
Utilize accurate stream : Yes
Defeat audio cache : Yes
Make use of C2 pointers : No
Read offset correction : 48
Overread into Lead-In and Lead-Out : No
Fill up missing offset samples with silence : Yes
Delete leading and trailing silent blocks : No
Null samples used in CRC calculations : Yes
Used interface : Installed external ASPI interface
Gap handling : Appended to previous track
Used output format : User Defined Encoder
Selected bitrate : 896 kBit/s
Quality : High
Add ID3 tag : No
Command line compressor : C:\Program Files\Exact Audio Copy\FLAC\FLAC.EXE
Additional command line options : -6 -V -T "ARTIST=%artist%" -T "TITLE=%title%" -T "ALBUM=%albumtitle%" -T "DATE=%year%" -T "TRACKNUMBER=%tracknr%" -T "GENRE=%genre%" -T "COMMENT=%comment%" -T "BAND=%albuminterpret%" -T "COMPOSER=%composer%" %haslyrics%--tag-from-file=LYRICS="%lyricsfile%"%haslyrics% -T "DISCNUMBER=%cdnumber%" -T "TOTALDISCS=%totalcds%" -T "TOTALTRACKS=%numtracks%" %hascover%--picture="%coverfile%"%hascover% %source% -o %dest%
TOC of the extracted CD
Track | Start | Length | Start sector | End sector
---------------------------------------------------------
1 | 0:00.00 | 9:22.63 | 0 | 42212
2 | 9:22.63 | 7:03.49 | 42213 | 73986
3 | 16:26.37 | 7:50.31 | 73987 | 109267
4 | 24:16.68 | 6:33.61 | 109268 | 138803
5 | 30:50.54 | 9:55.52 | 138804 | 183480
6 | 40:46.31 | 1:36.25 | 183481 | 190705
7 | 42:22.56 | 4:14.32 | 190706 | 209787
8 | 46:37.13 | 6:37.19 | 209788 | 239581
9 | 53:14.32 | 4:12.48 | 239582 | 258529
10 | 57:27.05 | 4:19.39 | 258530 | 277993
Track 1
Filename D:\zzz\01 - Self-Luminous.wav
Pre-gap length 0:00:02.00
Peak level 69.3 %
Extraction speed 4.9 X
Track quality 100.0 %
Test CRC 6728424B
Copy CRC 6728424B
Track not present in AccurateRip database
Copy OK
Track 2
Filename D:\zzz\02 - Camouflage.wav
Peak level 27.1 %
Extraction speed 5.3 X
Track quality 99.9 %
Test CRC 05C9A416
Copy CRC 05C9A416
Track not present in AccurateRip database
Copy OK
Track 3
Filename D:\zzz\03 - No Code.wav
Peak level 88.6 %
Extraction speed 6.0 X
Track quality 99.9 %
Test CRC 74150469
Copy CRC 74150469
Track not present in AccurateRip database
Copy OK
Track 4
Filename D:\zzz\04 - Concerned.wav
Peak level 73.4 %
Extraction speed 6.8 X
Track quality 100.0 %
Test CRC 2E351A9D
Copy CRC 2E351A9D
Track not present in AccurateRip database
Copy OK
Track 5
Filename D:\zzz\05 - Purple People.wav
Peak level 70.2 %
Extraction speed 7.6 X
Track quality 100.0 %
Test CRC 443C3B82
Copy CRC 443C3B82
Track not present in AccurateRip database
Copy OK
Track 6
Filename D:\zzz\06 - What's Your Name Again.wav
Peak level 19.6 %
Extraction speed 6.0 X
Track quality 100.0 %
Test CRC 1B2D2279
Copy CRC 1B2D2279
Track not present in AccurateRip database
Copy OK
Track 7
Filename D:\zzz\07 - Sweet.wav
Peak level 42.7 %
Extraction speed 7.5 X
Track quality 100.0 %
Test CRC D72D51C9
Copy CRC D72D51C9
Track not present in AccurateRip database
Copy OK
Track 8
Filename D:\zzz\08 - Lilt.wav
Peak level 94.4 %
Extraction speed 8.2 X
Track quality 100.0 %
Test CRC 6E67CB04
Copy CRC 6E67CB04
Track not present in AccurateRip database
Copy OK
Track 9
Filename D:\zzz\09 - Smear.wav
Peak level 94.0 %
Extraction speed 7.2 X
Track quality 99.9 %
Test CRC 0155937A
Copy CRC 0155937A
Track not present in AccurateRip database
Copy OK
Track 10
Filename D:\zzz\10 - Alchemix.wav
Peak level 86.4 %
Extraction speed 8.2 X
Track quality 100.0 %
Test CRC A15C9D04
Copy CRC A15C9D04
Track not present in AccurateRip database
Copy OK
None of the tracks are present in the AccurateRip database
No errors occurred
End of status report
==== Log checksum 7B585AC548272F49146C1989D8D3FBA8F4FD78EC8965E7717E71A340A4BF06D7 ====
 
Содержание индексной карты (.CUE)
REM GENRE Jazz
REM DATE 2005
REM DISCID AF0E7A0A
REM COMMENT "ExactAudioCopy v1.0b3"
PERFORMER "Mark O'Leary, Mat Maneri, Randy Peterson"
TITLE "Self-Luminous"
FILE "01 - Self-Luminous.wav" WAVE
TRACK 01 AUDIO
TITLE "Self-Luminous"
PERFORMER "Mark O'Leary, Mat Maneri, Randy Peterson"
INDEX 01 00:00:00
FILE "02 - Camouflage.wav" WAVE
TRACK 02 AUDIO
TITLE "Camouflage"
PERFORMER "Mark O'Leary, Mat Maneri, Randy Peterson"
INDEX 01 00:00:00
FILE "03 - No Code.wav" WAVE
TRACK 03 AUDIO
TITLE "No Code"
PERFORMER "Mark O'Leary, Mat Maneri, Randy Peterson"
INDEX 01 00:00:00
FILE "04 - Concerned.wav" WAVE
TRACK 04 AUDIO
TITLE "Concerned"
PERFORMER "Mark O'Leary, Mat Maneri, Randy Peterson"
INDEX 01 00:00:00
FILE "05 - Purple People.wav" WAVE
TRACK 05 AUDIO
TITLE "Purple People"
PERFORMER "Mark O'Leary, Mat Maneri, Randy Peterson"
INDEX 01 00:00:00
FILE "06 - What's Your Name Again.wav" WAVE
TRACK 06 AUDIO
TITLE "What's Your Name Again?"
PERFORMER "Mark O'Leary, Mat Maneri, Randy Peterson"
INDEX 01 00:00:00
FILE "07 - Sweet.wav" WAVE
TRACK 07 AUDIO
TITLE "Sweet"
PERFORMER "Mark O'Leary, Mat Maneri, Randy Peterson"
INDEX 01 00:00:00
FILE "08 - Lilt.wav" WAVE
TRACK 08 AUDIO
TITLE "Lilt"
PERFORMER "Mark O'Leary, Mat Maneri, Randy Peterson"
INDEX 01 00:00:00
FILE "09 - Smear.wav" WAVE
TRACK 09 AUDIO
TITLE "Smear"
PERFORMER "Mark O'Leary, Mat Maneri, Randy Peterson"
INDEX 01 00:00:00
FILE "10 - Alchemix.wav" WAVE
TRACK 10 AUDIO
TITLE "Alchemix"
PERFORMER "Mark O'Leary, Mat Maneri, Randy Peterson"
INDEX 01 00:00:00
 
Лог проверки качества
d:\>d:\aucdtect -d/-m0 d:\zzz\*.wav
auCDtect: CD records authenticity detector, version 0.8.2
Copyright (c) 2004 Oleg Berngardt. All rights reserved.
Copyright (c) 2004 Alexander Djourik. All rights reserved.
------------------------------------------------------------
Processing file: [01. Self-Luminous.wav]
------------------------------------------------------------
This track looks like CDDA with probability 100%
------------------------------------------------------------
Processing file: [02. Camouflage.wav]
------------------------------------------------------------
This track looks like CDDA with probability 100%
------------------------------------------------------------
Processing file: [03. No Code.wav]
------------------------------------------------------------
This track looks like CDDA with probability 100%
------------------------------------------------------------
Processing file: [04. Concerned.wav]
------------------------------------------------------------
This track looks like CDDA with probability 100%
------------------------------------------------------------
Processing file: [05. Purple People.wav]
------------------------------------------------------------
This track looks like CDDA with probability 100%
------------------------------------------------------------
Processing file: [06. What's Your Name Again.wav]
------------------------------------------------------------
This track looks like CDDA with probability 100%
------------------------------------------------------------
Processing file: [07. Sweet.wav]
------------------------------------------------------------
This track looks like CDDA with probability 100%
------------------------------------------------------------
Processing file: [08. Lilt.wav]
------------------------------------------------------------
This track looks like CDDA with probability 100%
------------------------------------------------------------
Processing file: [09. Smear.wav]
------------------------------------------------------------
This track looks like CDDA with probability 100%
------------------------------------------------------------
Processing file: [10. Alchemix.wav]
------------------------------------------------------------
This track looks like CDDA with probability 100%
------------------------------------------------------------
Final Conclusion:
------------------------------------------------------------
These tracks looks like CDDA with probability 100%
Доп. информация:
 
AMG Review
Self-Luminous is one of two trio sessions recorded by Mark O'Leary and Mat Maneri on January 4, 2002, and released simultaneously on Leo Records three and a half years later. The other set, Chamber Trio, also involved pianist Matthew Shipp and took a rather soft-edged free-bop direction. This set is more dynamic and keener on experimentation. Drummer Randy Peterson, one of Maneri's regular sidemen, takes the third chair this time. The music still relies heavily on the musical relationship between the electric guitar and the violin. When O'Leary and Maneri play quietly, their instruments have eerily similar tones, but whenever things heat up they diverge, reaching opposite sound palettes that make you wonder how they could be almost mistaken for one another a few minutes earlier. They also seem to be consciously varying their level of listening, sometimes proceeding with caution to keep a tight focus on interaction, other times letting loose in different directions, only careful to eventually find each other again. Peterson is the real vector in this interplay, keeping things velvety in "Self-Luminous" and "Camouflage" to let his colleagues unfold their immaterial melodicism, and then prying them apart in "Lilt" and "Purple People." It would be a slight exaggeration to present Self-Luminous and Chamber Trio as two sides of the same coin, but there is something like that at play. The other one has more thought to it; this one features more stamina, although the tender side of Chamber Trio remains present here. Self-Luminous is more vital, but also a more difficult listen.
 
Состав
Drums – Randy Peterson
Guitar – Mark O'Leary
Viola – Mat Maneri
Any questions -> support@pro-jazz.com. По всем вопросам пишите -> support@pro-jazz.com
08:29
218
Нет комментариев. Ваш будет первым!