Поиск

(Avant-Garde Jazz, Free Improvisation) Leroy Jenkins - Space Minds, New Worlds, Survival Of America - 2003, APE (tracks+.cue), lossless

(Avant-Garde Jazz, Free Improvisation) Leroy Jenkins - Space Minds, New Worlds, Survival Of America - 2003, APE (tracks+.cue), lossless
Треклист:
♦ Leroy Jenkins - Space Minds, New Worlds, Survival Of America ♦
Жанр: Avant-Garde Jazz, Free Improvisation
Страна-производитель диска: USA
Год издания: 2003
Издатель (лейбл): Tomato
Номер по каталогу: TOM-2032
Аудиокодек: APE (*.ape)
Тип рипа: tracks+.cue
Битрейт аудио: lossless
Продолжительность: 00:38:41
Источник (релизер): Рип с диска.
Наличие сканов в содержимом раздачи: да
Треклист:
01. Space Minds, New Worlds, Survival Of America [20:57]
02. Dancing On A Melody [04:43]
03. The Clowns [03:25]
04. Kick Back Stomp [06:31]
05. Through The Ages Of Jehovah [03:03]
 
Лог создания рипа
Exact Audio Copy V1.0 beta 3 from 29. August 2011
EAC extraction logfile from 18. June 2013, 15:36
Leroy Jenkins / Space Minds, New Worlds, Survival Of America
Used drive : Optiarc DVD RW AD-5200A Adapter: 0 ID: 0
Read mode : Secure
Utilize accurate stream : Yes
Defeat audio cache : Yes
Make use of C2 pointers : No
Read offset correction : 48
Overread into Lead-In and Lead-Out : No
Fill up missing offset samples with silence : Yes
Delete leading and trailing silent blocks : No
Null samples used in CRC calculations : Yes
Used interface : Native Win32 interface for Win NT & 2000
Gap handling : Appended to previous track
Used output format : User Defined Encoder
Selected bitrate : 128 kBit/s
Quality : High
Add ID3 tag : No
Command line compressor : F:\Program Files\Monkey's Audio\wapet.exe
Additional command line options : %dest% -t "Genre=%genre%" -t "Artist=%artist%" -t "Title=%title%" -t "Album=%albumtitle%" -t "Year=%year%" -t "Track=%tracknr%" -t "Comment=%comment%" mac.exe %source% %dest% -c3000
TOC of the extracted CD
Track | Start | Length | Start sector | End sector
---------------------------------------------------------
1 | 0:00.00 | 20:57.65 | 0 | 94339
2 | 20:57.65 | 4:43.37 | 94340 | 115601
3 | 25:41.27 | 3:25.08 | 115602 | 130984
4 | 29:06.35 | 6:31.17 | 130985 | 160326
5 | 35:37.52 | 3:03.57 | 160327 | 174108
Track 1
Filename F:\2003.Leroy Jenkins - Space Minds, New Worlds, Survival Of America\01. Space Minds, New Worlds, Survival Of America.wav
Pre-gap length 0:00:02.00
Peak level 99.6 %
Extraction speed 2.9 X
Track quality 100.0 %
Test CRC CD569E29
Copy CRC CD569E29
Accurately ripped (confidence 3) [57ADBF18] (AR v1)
Copy OK
Track 2
Filename F:\2003.Leroy Jenkins - Space Minds, New Worlds, Survival Of America\02. Dancing On A Melody.wav
Pre-gap length 0:00:01.43
Peak level 99.6 %
Extraction speed 3.0 X
Track quality 99.9 %
Test CRC 2E44C74F
Copy CRC 2E44C74F
Accurately ripped (confidence 3) [8A1A240B] (AR v1)
Copy OK
Track 3
Filename F:\2003.Leroy Jenkins - Space Minds, New Worlds, Survival Of America\03. The Clowns.wav
Pre-gap length 0:00:01.55
Peak level 99.4 %
Extraction speed 3.3 X
Track quality 100.0 %
Test CRC 2D9587EC
Copy CRC 2D9587EC
Accurately ripped (confidence 3) [43874E26] (AR v1)
Copy OK
Track 4
Filename F:\2003.Leroy Jenkins - Space Minds, New Worlds, Survival Of America\04. Kick Back Stomp.wav
Pre-gap length 0:00:01.56
Peak level 86.5 %
Extraction speed 3.7 X
Track quality 100.0 %
Test CRC 125DBF1B
Copy CRC 125DBF1B
Accurately ripped (confidence 3) [EAF28C80] (AR v1)
Copy OK
Track 5
Filename F:\2003.Leroy Jenkins - Space Minds, New Worlds, Survival Of America\05. Through The Ages Of Jehovah.wav
Pre-gap length 0:00:01.55
Peak level 99.5 %
Extraction speed 3.5 X
Track quality 100.0 %
Test CRC 6E9CD347
Copy CRC 6E9CD347
Accurately ripped (confidence 3) [055F5D15] (AR v1)
Copy OK
All tracks accurately ripped
No errors occurred
End of status report
==== Log checksum B6DD06302C8A13D9E1C33D48B29DFD28B55269010A0FE758D7F251706ECA5A14 ====
 
Содержание индексной карты (.CUE)
REM GENRE Jazz
REM DATE 2003
REM DISCID 43091105
REM COMMENT "ExactAudioCopy v1.0b3"
PERFORMER "Leroy Jenkins"
TITLE "Space Minds, New Worlds, Survival Of America"
FILE "01. Space Minds, New Worlds, Survival Of America.wav" WAVE
TRACK 01 AUDIO
TITLE "Space Minds, New Worlds, Survival Of America"
PERFORMER "Leroy Jenkins"
INDEX 01 00:00:00
TRACK 02 AUDIO
TITLE "Dancing On A Melody"
PERFORMER "Leroy Jenkins"
INDEX 00 20:56:22
FILE "02. Dancing On A Melody.wav" WAVE
INDEX 01 00:00:00
TRACK 03 AUDIO
TITLE "The Clowns"
PERFORMER "Leroy Jenkins"
INDEX 00 04:41:57
FILE "03. The Clowns.wav" WAVE
INDEX 01 00:00:00
TRACK 04 AUDIO
TITLE "Kick Back Stomp"
PERFORMER "Leroy Jenkins"
INDEX 00 03:23:27
FILE "04. Kick Back Stomp.wav" WAVE
INDEX 01 00:00:00
TRACK 05 AUDIO
TITLE "Through The Ages Of Jehovah"
PERFORMER "Leroy Jenkins"
INDEX 00 06:29:37
FILE "05. Through The Ages Of Jehovah.wav" WAVE
INDEX 01 00:00:00
 
Состав
Personnel: Leroy Jenkins (violin); George Lewis (trombone, electronics); Anthony Davis (piano, electric piano); Richard Teitelbaum (synthesizer, Moog synthesizer); Andrew Cyrille (percussion).
14:59
608
Нет комментариев. Ваш будет первым!