Вы используете незарегистрированную версию компонента "Вкладки"!

Поиск

(Avant-Garde, Hat Hut Records) Ellery Eskelin with Andrea Parkins & Jim Black - 12 (+1) Imaginary Views - 2002, FLAC (tracks+.cue), lossless

(Avant-Garde, Hat Hut Records) Ellery Eskelin with Andrea Parkins & Jim Black - 12 (+1) Imaginary Views - 2002, FLAC (tracks+.cue), lossless
Треклист:
Ellery Eskelin with Andrea Parkins & Jim Black / 12 (+1) Imaginary Views
Жанр: Avant-Garde, Hat Hut Records
Страна-производитель диска: Switzerland
Год издания: 2002
Издатель (лейбл): Hat Hut Records
Номер по каталогу: hatOLOGY 584
Аудиокодек: FLAC (*.flac)
Тип рипа: tracks+.cue
Битрейт аудио: lossless
Продолжительность: 1:00:49
Источник (релизер): Max Monteiro
Наличие сканов в содержимом раздачи: нет
Треклист:
01. Opener 4:23
02. Four Chords 3:27
03. Low(ly) 4:49
04. Plastiche 4:06
05. Grafix 6:11
06. Hûm 2:02
07. Modular 7:38
08. Naked Eye 7:05
09. Combulatory 5:24
10. Kicks 3:17
11. Middle C 3:42
12. Magnets 3:16
13. Oska T (Thelonious Monk) 5:29
All compositions by Ellery Eskelin except where indicated.
Recorded on April 1st, 2001 at Sound on Sound studios in New York City.
Ellery Eskelin – Tenor Saxophone
Andrea Parkins – Accordion, Piano and Sampler
Jim Black – Drums and Percussion
 
Лог создания рипа
Exact Audio Copy V1.0 beta 3 from 29. August 2011
EAC extraction logfile from 14. June 2013, 19:25
Ellery Eskelin with Andrea Parkins & Jim Black / 12 (+1) Imaginary Views
Used drive : SlimtypeeNAU508 5 Adapter: 1 ID: 0
Read mode : Secure
Utilize accurate stream : Yes
Defeat audio cache : Yes
Make use of C2 pointers : No
Read offset correction : 6
Overread into Lead-In and Lead-Out : No
Fill up missing offset samples with silence : Yes
Delete leading and trailing silent blocks : No
Null samples used in CRC calculations : Yes
Used interface : Native Win32 interface for Win NT & 2000
Gap handling : Appended to previous track
Used output format : User Defined Encoder
Selected bitrate : 768 kBit/s
Quality : High
Add ID3 tag : No
Command line compressor : C:\Program Files (x86)\Exact Audio Copy\Flac\flac.exe
Additional command line options : -8 -V -T "ARTIST=%artist%" -T "TITLE=%title%" -T "ALBUM=%albumtitle%" -T "DATE=%year%" -T "TRACKNUMBER=%tracknr%" -T "GENRE=%genre%" -T "PERFORMER=%albuminterpret%" -T "COMPOSER=%composer%" %haslyrics%--tag-from-file=LYRICS="%lyricsfile%"%haslyrics% -T "ALBUMARTIST=%albumartist%" -T "DISCNUMBER=%cdnumber%" -T "TOTALDISCS=%totalcds%" -T "TOTALTRACKS=%numtracks%" -T "COMMENT=%comment%" %source% -o %dest%
TOC of the extracted CD
Track | Start | Length | Start sector | End sector
---------------------------------------------------------
1 | 0:00.00 | 4:22.62 | 0 | 19711
2 | 4:22.62 | 3:27.00 | 19712 | 35236
3 | 7:49.62 | 4:49.00 | 35237 | 56911
4 | 12:38.62 | 4:06.00 | 56912 | 75361
5 | 16:44.62 | 6:11.00 | 75362 | 103186
6 | 22:55.62 | 2:02.00 | 103187 | 112336
7 | 24:57.62 | 7:38.00 | 112337 | 146686
8 | 32:35.62 | 7:05.00 | 146687 | 178561
9 | 39:40.62 | 5:24.00 | 178562 | 202861
10 | 45:04.62 | 3:17.00 | 202862 | 217636
11 | 48:21.62 | 3:42.00 | 217637 | 234286
12 | 52:03.62 | 3:16.00 | 234287 | 248986
13 | 55:19.62 | 5:29.13 | 248987 | 273674
Track 1
Filename C:\EAC rips\01 - Opener.wav
Pre-gap length 0:00:02.00
Peak level 99.0 %
Extraction speed 1.7 X
Track quality 100.0 %
Test CRC CE407BD7
Copy CRC CE407BD7
Accurately ripped (confidence 2) [292537BD] (AR v1)
Copy OK
Track 2
Filename C:\EAC rips\02 - Four Chords.wav
Peak level 99.2 %
Extraction speed 1.8 X
Track quality 100.0 %
Test CRC D8974EF7
Copy CRC D8974EF7
Accurately ripped (confidence 2) [6FBA15E7] (AR v1)
Copy OK
Track 3
Filename C:\EAC rips\03 - Low(ly).wav
Peak level 85.5 %
Extraction speed 2.1 X
Track quality 100.0 %
Test CRC 541EFFD4
Copy CRC 541EFFD4
Accurately ripped (confidence 2) [B50C6984] (AR v1)
Copy OK
Track 4
Filename C:\EAC rips\04 - Plastiche.wav
Peak level 99.0 %
Extraction speed 1.9 X
Track quality 99.9 %
Test CRC 6FF8D570
Copy CRC 6FF8D570
Accurately ripped (confidence 2) [85ECFAE2] (AR v1)
Copy OK
Track 5
Filename C:\EAC rips\05 - Grafik.wav
Peak level 99.0 %
Extraction speed 2.5 X
Track quality 100.0 %
Test CRC CB45755B
Copy CRC CB45755B
Accurately ripped (confidence 2) [17FB9F4E] (AR v1)
Copy OK
Track 6
Filename C:\EAC rips\06 - Hûm.wav
Peak level 59.3 %
Extraction speed 2.2 X
Track quality 100.0 %
Test CRC 640F17C0
Copy CRC 640F17C0
Accurately ripped (confidence 2) [E4217914] (AR v1)
Copy OK
Track 7
Filename C:\EAC rips\07 - Modular.wav
Peak level 99.0 %
Extraction speed 2.8 X
Track quality 100.0 %
Test CRC D2A8A298
Copy CRC D2A8A298
Accurately ripped (confidence 2) [A60ECDF6] (AR v1)
Copy OK
Track 8
Filename C:\EAC rips\08 - Naked Eyes.wav
Peak level 79.2 %
Extraction speed 3.0 X
Track quality 100.0 %
Test CRC E91DCE0C
Copy CRC E91DCE0C
Accurately ripped (confidence 2) [3F19BE0F] (AR v1)
Copy OK
Track 9
Filename C:\EAC rips\09 - Combulatory.wav
Peak level 99.4 %
Extraction speed 2.8 X
Track quality 99.9 %
Test CRC 122F6ADA
Copy CRC 122F6ADA
Accurately ripped (confidence 3) [3EBE5797] (AR v1)
Copy OK
Track 10
Filename C:\EAC rips\10 - Kicks.wav
Peak level 99.0 %
Extraction speed 3.0 X
Track quality 100.0 %
Test CRC 434995B6
Copy CRC 434995B6
Accurately ripped (confidence 2) [5B2B3B4C] (AR v1)
Copy OK
Track 11
Filename C:\EAC rips\11 - Middle C.wav
Peak level 94.9 %
Extraction speed 3.1 X
Track quality 100.0 %
Test CRC 4524F419
Copy CRC 4524F419
Accurately ripped (confidence 2) [CC2264D2] (AR v1)
Copy OK
Track 12
Filename C:\EAC rips\12 - Magnets.wav
Peak level 81.2 %
Extraction speed 3.2 X
Track quality 100.0 %
Test CRC 27D843C7
Copy CRC 27D843C7
Accurately ripped (confidence 2) [8536B1C4] (AR v1)
Copy OK
Track 13
Filename C:\EAC rips\13 - Oska T.wav
Peak level 99.4 %
Extraction speed 3.5 X
Track quality 100.0 %
Test CRC 8AE3A948
Copy CRC 8AE3A948
Accurately ripped (confidence 2) [DBFD3261] (AR v1)
Copy OK
All tracks accurately ripped
No errors occurred
End of status report
---- CUETools DB Plugin V2.1.4
[CTDB TOCID: 4XtojHPJ9gJBBp6E0FP6mBvfY4c-] found
Submit result: 4XtojHPJ9gJBBp6E0FP6mBvfY4c- has been confirmed
Track | CTDB Status
1 | (3/3) Accurately ripped
2 | (3/3) Accurately ripped
3 | (3/3) Accurately ripped
4 | (3/3) Accurately ripped
5 | (3/3) Accurately ripped
6 | (3/3) Accurately ripped
7 | (3/3) Accurately ripped
8 | (3/3) Accurately ripped
9 | (3/3) Accurately ripped
10 | (3/3) Accurately ripped
11 | (3/3) Accurately ripped
12 | (3/3) Accurately ripped
13 | (3/3) Accurately ripped
==== Log checksum 98109EBCA6AEE80AC45D757CD4D2EC6DC7DFD5C35494F373F37A5E4D59E06F11 ====
 
Содержание индексной карты (.CUE)
REM GENRE Jazz
REM DATE 2002
REM DISCID AD0E410D
REM COMMENT "ExactAudioCopy v1.0b3"
PERFORMER "Ellery Eskelin with Andrea Parkins & Jim Black"
TITLE "12 (+1) Imaginary Views"
FILE "01 - Opener.wav" WAVE
TRACK 01 AUDIO
TITLE "Opener"
PERFORMER "Ellery Eskelin with Andrea Parkins & Jim Black"
ISRC CH1310100413
INDEX 01 00:00:00
FILE "02 - Four Chords.wav" WAVE
TRACK 02 AUDIO
TITLE "Four Chords"
PERFORMER "Ellery Eskelin with Andrea Parkins & Jim Black"
ISRC CH1310100414
INDEX 01 00:00:00
FILE "03 - Low(ly).wav" WAVE
TRACK 03 AUDIO
TITLE "Low(ly)"
PERFORMER "Ellery Eskelin with Andrea Parkins & Jim Black"
ISRC CH1310100415
INDEX 01 00:00:00
FILE "04 - Plastiche.wav" WAVE
TRACK 04 AUDIO
TITLE "Plastiche"
PERFORMER "Ellery Eskelin with Andrea Parkins & Jim Black"
ISRC CH1310100416
INDEX 01 00:00:00
FILE "05 - Grafik.wav" WAVE
TRACK 05 AUDIO
TITLE "Grafik"
PERFORMER "Ellery Eskelin with Andrea Parkins & Jim Black"
ISRC CH1310100417
INDEX 01 00:00:00
FILE "06 - Hûm.wav" WAVE
TRACK 06 AUDIO
TITLE "Hûm"
PERFORMER "Ellery Eskelin with Andrea Parkins & Jim Black"
ISRC CH1310100418
INDEX 01 00:00:00
FILE "07 - Modular.wav" WAVE
TRACK 07 AUDIO
TITLE "Modular"
PERFORMER "Ellery Eskelin with Andrea Parkins & Jim Black"
ISRC CH1310100419
INDEX 01 00:00:00
FILE "08 - Naked Eyes.wav" WAVE
TRACK 08 AUDIO
TITLE "Naked Eyes"
PERFORMER "Ellery Eskelin with Andrea Parkins & Jim Black"
ISRC CH1310100420
INDEX 01 00:00:00
FILE "09 - Combulatory.wav" WAVE
TRACK 09 AUDIO
TITLE "Combulatory"
PERFORMER "Ellery Eskelin with Andrea Parkins & Jim Black"
ISRC CH1310100421
INDEX 01 00:00:00
FILE "10 - Kicks.wav" WAVE
TRACK 10 AUDIO
TITLE "Kicks"
PERFORMER "Ellery Eskelin with Andrea Parkins & Jim Black"
ISRC CH1310100422
INDEX 01 00:00:00
FILE "11 - Middle C.wav" WAVE
TRACK 11 AUDIO
TITLE "Middle C"
PERFORMER "Ellery Eskelin with Andrea Parkins & Jim Black"
ISRC CH1310100423
INDEX 01 00:00:00
FILE "12 - Magnets.wav" WAVE
TRACK 12 AUDIO
TITLE "Magnets"
PERFORMER "Ellery Eskelin with Andrea Parkins & Jim Black"
ISRC CH1310100424
INDEX 01 00:00:00
FILE "13 - Oska T.wav" WAVE
TRACK 13 AUDIO
TITLE "Oska T"
PERFORMER "Ellery Eskelin with Andrea Parkins & Jim Black"
ISRC CH1310100425
INDEX 01 00:00:00
Any questions -> support@pro-jazz.com. По всем вопросам пишите -> support@pro-jazz.com
14:59
175
Нет комментариев. Ваш будет первым!