Вы используете незарегистрированную версию компонента "Вкладки"!

Поиск

(Avant-Garde Jazz, Free Improvisation) Kyle Bruckmann, Ernesto Diaz-Infante, John Shiurba, Karen Stackpole - Grand Mal - 2003, FLAC (tracks+.cue), lossless

(Avant-Garde Jazz, Free Improvisation) Kyle Bruckmann, Ernesto Diaz-Infante, John Shiurba, Karen Stackpole - Grand Mal - 2003, FLAC (tracks+.cue), lossless
Треклист:
Kyle Bruckmann, Ernesto Diaz-Infante, John Shiurba, Karen Stackpole / Grand Mal
Жанр: Avant-Garde Jazz, Free Improvisation
Страна-производитель диска: US
Год издания: 2003
Издатель (лейбл): Barely Auditable Records / Pax Recordings
Номер по каталогу: bar1234
Страна: US
Аудиокодек: FLAC (*.flac)
Тип рипа: tracks+.cue
Битрейт аудио: lossless
Продолжительность: 45:34
Источник (релизер): свой фирменный диск
Наличие сканов в содержимом раздачи:
Треклист:
1. Catatonic Posturing I
2. Nervous Tic
3. Gray Matter
4. Spatial Agnosia
5. The Final "d" In "grand" Is Not Pronounced
6. Big, Bad
7. Retrograde Amnesia
8. Shaking Palsy
9. Tonic Clonic
10. Catatonic Posturing II
 
Лог создания рипа
Exact Audio Copy V1.0 beta 3 from 29. August 2011
EAC extraction logfile from 29. May 2013, 23:36
Kyle Bruckmann, Ernesto Diaz-Infante, John Shiurba, Karen Stackpole / Grand Mal
Used drive : PIONEER DVD-RW DVR-115D Adapter: 0 ID: 0
Read mode : Secure
Utilize accurate stream : Yes
Defeat audio cache : Yes
Make use of C2 pointers : No
Read offset correction : 48
Overread into Lead-In and Lead-Out : No
Fill up missing offset samples with silence : Yes
Delete leading and trailing silent blocks : No
Null samples used in CRC calculations : Yes
Used interface : Installed external ASPI interface
Gap handling : Appended to previous track
Used output format : User Defined Encoder
Selected bitrate : 896 kBit/s
Quality : High
Add ID3 tag : No
Command line compressor : C:\Program Files\Exact Audio Copy\FLAC\FLAC.EXE
Additional command line options : -6 -V -T "ARTIST=%artist%" -T "TITLE=%title%" -T "ALBUM=%albumtitle%" -T "DATE=%year%" -T "TRACKNUMBER=%tracknr%" -T "GENRE=%genre%" -T "COMMENT=%comment%" -T "BAND=%albuminterpret%" -T "COMPOSER=%composer%" %haslyrics%--tag-from-file=LYRICS="%lyricsfile%"%haslyrics% -T "DISCNUMBER=%cdnumber%" -T "TOTALDISCS=%totalcds%" -T "TOTALTRACKS=%numtracks%" %hascover%--picture="%coverfile%"%hascover% %source% -o %dest%
TOC of the extracted CD
Track | Start | Length | Start sector | End sector
---------------------------------------------------------
1 | 0:00.00 | 3:15.36 | 0 | 14660
2 | 3:15.36 | 1:45.53 | 14661 | 22588
3 | 5:01.14 | 5:27.19 | 22589 | 47132
4 | 10:28.33 | 2:11.29 | 47133 | 56986
5 | 12:39.62 | 6:55.63 | 56987 | 88174
6 | 19:35.50 | 1:46.02 | 88175 | 96126
7 | 21:21.52 | 10:41.60 | 96127 | 144261
8 | 32:03.37 | 2:18.42 | 144262 | 154653
9 | 34:22.04 | 4:39.18 | 154654 | 175596
10 | 39:01.22 | 6:33.38 | 175597 | 205109
Track 1
Filename D:\zzz\01 - Catatonic Posturing I.wav
Pre-gap length 0:00:02.00
Peak level 97.7 %
Extraction speed 4.5 X
Track quality 100.0 %
Test CRC 7EFEED00
Copy CRC 7EFEED00
Accurately ripped (confidence 1) [F6AD8922] (AR v1)
Copy OK
Track 2
Filename D:\zzz\02 - Nervous Tic.wav
Pre-gap length 0:00:00.74
Peak level 97.7 %
Extraction speed 4.2 X
Track quality 100.0 %
Test CRC A4A555AA
Copy CRC A4A555AA
Accurately ripped (confidence 1) [431681FE] (AR v1)
Copy OK
Track 3
Filename D:\zzz\03 - Gray Matter.wav
Pre-gap length 0:00:02.60
Peak level 97.7 %
Extraction speed 5.5 X
Track quality 100.0 %
Test CRC 91E2C2CD
Copy CRC 91E2C2CD
Accurately ripped (confidence 1) [A8F99AC3] (AR v1)
Copy OK
Track 4
Filename D:\zzz\04 - Spatial Agnosia.wav
Pre-gap length 0:00:03.60
Peak level 97.7 %
Extraction speed 5.1 X
Track quality 100.0 %
Test CRC B2AECB4B
Copy CRC B2AECB4B
Accurately ripped (confidence 1) [C8F03535] (AR v1)
Copy OK
Track 5
Filename D:\zzz\05 - The Final ''D'' In ''Grand'' Is Not Pronounced.wav
Pre-gap length 0:00:03.60
Peak level 97.7 %
Extraction speed 6.4 X
Track quality 100.0 %
Test CRC 05E6CDE4
Copy CRC 05E6CDE4
Accurately ripped (confidence 1) [0AF4829A] (AR v1)
Copy OK
Track 6
Filename D:\zzz\06 - Big, Bad.wav
Pre-gap length 0:00:01.60
Peak level 97.7 %
Extraction speed 5.5 X
Track quality 100.0 %
Test CRC 3848F48C
Copy CRC 3848F48C
Accurately ripped (confidence 1) [D389C039] (AR v1)
Copy OK
Track 7
Filename D:\zzz\07 - Retrograde Amnesia.wav
Pre-gap length 0:00:02.60
Peak level 97.7 %
Extraction speed 7.5 X
Track quality 100.0 %
Test CRC B3705078
Copy CRC B3705078
Accurately ripped (confidence 1) [34D66BCC] (AR v1)
Copy OK
Track 8
Filename D:\zzz\08 - Shaking Palsy.wav
Peak level 97.7 %
Extraction speed 6.7 X
Track quality 100.0 %
Test CRC 7A078DBE
Copy CRC 7A078DBE
Accurately ripped (confidence 1) [68036A5C] (AR v1)
Copy OK
Track 9
Filename D:\zzz\09 - Tonic Clonic.wav
Pre-gap length 0:00:02.60
Peak level 97.7 %
Extraction speed 6.9 X
Track quality 99.9 %
Test CRC 47D08CBB
Copy CRC 47D08CBB
Accurately ripped (confidence 1) [88BB3000] (AR v1)
Copy OK
Track 10
Filename D:\zzz\10 - Catatonic Posturing II.wav
Pre-gap length 0:00:02.60
Peak level 97.7 %
Extraction speed 8.2 X
Track quality 100.0 %
Test CRC 5B55B58D
Copy CRC 5B55B58D
Accurately ripped (confidence 1) [E24E3F54] (AR v1)
Copy OK
All tracks accurately ripped
No errors occurred
End of status report
==== Log checksum D48CD6BECBFD6BD93F4B4F7AD62AA9F9DB440CF09571E080E778B4CB2E7D0732 ====
 
Содержание индексной карты (.CUE)
REM GENRE "Free Improvisation"
REM DATE 2003
REM DISCID 770AAE0A
REM COMMENT "ExactAudioCopy v1.0b3"
PERFORMER "Kyle Bruckmann, Ernesto Diaz-Infante, John Shiurba, Karen Stackpole"
TITLE "Grand Mal"
FILE "01 - Catatonic Posturing I.wav" WAVE
TRACK 01 AUDIO
TITLE "Catatonic Posturing I"
PERFORMER "Kyle Bruckmann, Ernesto Diaz-Infante, John Shiurba, Karen Stackpole"
FLAGS DCP
INDEX 01 00:00:00
TRACK 02 AUDIO
TITLE "Nervous Tic"
PERFORMER "Kyle Bruckmann, Ernesto Diaz-Infante, John Shiurba, Karen Stackpole"
FLAGS DCP
INDEX 00 03:14:37
FILE "02 - Nervous Tic.wav" WAVE
INDEX 01 00:00:00
TRACK 03 AUDIO
TITLE "Gray Matter"
PERFORMER "Kyle Bruckmann, Ernesto Diaz-Infante, John Shiurba, Karen Stackpole"
FLAGS DCP
INDEX 00 01:42:68
FILE "03 - Gray Matter.wav" WAVE
INDEX 01 00:00:00
TRACK 04 AUDIO
TITLE "Spatial Agnosia"
PERFORMER "Kyle Bruckmann, Ernesto Diaz-Infante, John Shiurba, Karen Stackpole"
FLAGS DCP
INDEX 00 05:23:34
FILE "04 - Spatial Agnosia.wav" WAVE
INDEX 01 00:00:00
TRACK 05 AUDIO
TITLE "The Final 'D' In 'Grand' Is Not Pronounced"
PERFORMER "Kyle Bruckmann, Ernesto Diaz-Infante, John Shiurba, Karen Stackpole"
FLAGS DCP
INDEX 00 02:07:44
FILE "05 - The Final ''D'' In ''Grand'' Is Not Pronounced.wav" WAVE
INDEX 01 00:00:00
TRACK 06 AUDIO
TITLE "Big, Bad"
PERFORMER "Kyle Bruckmann, Ernesto Diaz-Infante, John Shiurba, Karen Stackpole"
FLAGS DCP
INDEX 00 06:54:03
FILE "06 - Big, Bad.wav" WAVE
INDEX 01 00:00:00
TRACK 07 AUDIO
TITLE "Retrograde Amnesia"
PERFORMER "Kyle Bruckmann, Ernesto Diaz-Infante, John Shiurba, Karen Stackpole"
FLAGS DCP
INDEX 00 01:43:17
FILE "07 - Retrograde Amnesia.wav" WAVE
INDEX 01 00:00:00
FILE "08 - Shaking Palsy.wav" WAVE
TRACK 08 AUDIO
TITLE "Shaking Palsy"
PERFORMER "Kyle Bruckmann, Ernesto Diaz-Infante, John Shiurba, Karen Stackpole"
FLAGS DCP
INDEX 01 00:00:00
TRACK 09 AUDIO
TITLE "Tonic Clonic"
PERFORMER "Kyle Bruckmann, Ernesto Diaz-Infante, John Shiurba, Karen Stackpole"
FLAGS DCP
INDEX 00 02:15:57
FILE "09 - Tonic Clonic.wav" WAVE
INDEX 01 00:00:00
TRACK 10 AUDIO
TITLE "Catatonic Posturing II"
PERFORMER "Kyle Bruckmann, Ernesto Diaz-Infante, John Shiurba, Karen Stackpole"
FLAGS DCP
INDEX 00 04:36:33
FILE "10 - Catatonic Posturing II.wav" WAVE
INDEX 01 00:00:00
 
Лог проверки качества
d:\>d:\aucdtect -d/-m0 d:\zzz\*.wav
auCDtect: CD records authenticity detector, version 0.8.2
Copyright (c) 2004 Oleg Berngardt. All rights reserved.
Copyright (c) 2004 Alexander Djourik. All rights reserved.
------------------------------------------------------------
Processing file: [01. Catatonic Posturing I.wav]
------------------------------------------------------------
This track looks like CDDA with probability 100%
------------------------------------------------------------
Processing file: [02. Nervous Tic.wav]
------------------------------------------------------------
This track looks like CDDA with probability 100%
------------------------------------------------------------
Processing file: [03. Gray Matter.wav]
------------------------------------------------------------
This track looks like CDDA with probability 100%
------------------------------------------------------------
Processing file: [04. Spatial Agnosia.wav]
------------------------------------------------------------
This track looks like CDDA with probability 100%
------------------------------------------------------------
Processing file: [05. The Final 'D' In 'Grand' Is Not Pronounced.wav]
------------------------------------------------------------
This track looks like CDDA with probability 100%
------------------------------------------------------------
Processing file: [06. Big, Bad.wav]
------------------------------------------------------------
This track looks like CDDA with probability 99%
------------------------------------------------------------
Processing file: [07. Retrograde Amnesia.wav]
------------------------------------------------------------
This track looks like CDDA with probability 100%
------------------------------------------------------------
Processing file: [08. Shaking Palsy.wav]
------------------------------------------------------------
This track looks like CDDA with probability 100%
------------------------------------------------------------
Processing file: [09. Tonic Clonic.wav]
------------------------------------------------------------
This track looks like CDDA with probability 100%
------------------------------------------------------------
Processing file: [10. Catatonic Posturing II.wav]
------------------------------------------------------------
This track looks like CDDA with probability 87%
------------------------------------------------------------
Final Conclusion:
------------------------------------------------------------
These tracks looks like CDDA with probability 100%
Доп. информация:
 
Album Info, AMG Review
Recorded by Myles Boisen at Guerilla Recording, Oakland CA 01/01/02
Mixed & mastered by John Shiurba & Myles Boisen at Headless Buddha Mastering Lab, Oakland CA
(C)(P)2003 Grune Neune Musik, Itz'at Musica/BMI, Eskimo Ditties/BMI, Karen Stackpole
This album (which bears no filiation with the Amsterdam improv trio Grand Mal) is a beautiful meeting between East Coast and West Coast free improvisers. Technically a first meeting, it is backed by a complex network of previous experiences between all four musicians. The music sounds fresh, exciting, and genre-pushing, and has been beautifully captured by engineer Myles Boisen. The defining personality of the session is Chicagoan Kyle Bruckmann. His double-reed instruments (oboe, English horn, and suona) unfold unusual sounds and he twists them around the other players, drawing a path through the maze of the music. Using circular breathing, he produces long shimmering drones. He occasionally takes a lot of space, eclipsing the other players (in "Shaking Palsy" in particular), but not to the point of disturbing the force. Ernesto Diaz-Infante and John Shiurba entangle their strings (acoustic and electric, respectively). Diaz-Infante provides mostly textures, his quiet playing involving guitar preparations and the use of a small fan at some point. Shiurba is more lively, throwing muffled chords like bumps on the ride or strident cries. Percussionist Karen Stackpole (a member of the Left Coast Improv Group, with Diaz-Infante) plays a delicate role. Sticking to hand-held instruments and cymbals, she flutters around the others, shaking, rubbing, rarely striking something loudly. Her sense of time and place is mostly impeccable -- Grand Mal could be her best session yet. The music sits comfortably on a tension line between maximalist and minimalist improv. Recommended.
 
Состав
Kyle Bruckmann: oboe, english horn, suona
Ernesto Diaz-Infante: acoustic guitar
John Shiurba: electric guitar
Karen Stackpole: percussion
Any questions -> support@pro-jazz.com. По всем вопросам пишите -> support@pro-jazz.com
14:05
166
Нет комментариев. Ваш будет первым!