Вы используете незарегистрированную версию компонента "Вкладки"!

Поиск

(Avant-Garde, Contemporary Jazz, Intakt Records) Lindsay Cooper - Sahara Dust - 1993, FLAC (tracks+.cue), lossless

(Avant-Garde, Contemporary Jazz, Intakt Records) Lindsay Cooper - Sahara Dust - 1993, FLAC (tracks+.cue), lossless
Издатель (лейбл):
Треклист:
Lindsay Cooper / Sahara Dust
Жанр: Avant-Garde, Contemporary Jazz, Intakt Records
Страна-производитель диска: Switzerland
Год издания: 1993
Издатель (лейбл): Intakt Records
Номер по каталогу: CD 029
Аудиокодек: FLAC (*.flac)
Тип рипа: tracks+.cue
Битрейт аудио: lossless
Продолжительность: 53:38
Источник (релизер): Max Monteiro
Наличие сканов в содержимом раздачи: да
Треклист:
Sahara Dust
1. Part 1 12:09
2. Part 2 6:15
3. Part 3 8:24
4. Part 4 10:50
5. Part 5 6:19
Composition by Lindsay Cooper. Lyrics by Robyn Archer.
 
Лог создания рипа
Exact Audio Copy V1.0 beta 3 from 29. August 2011
EAC extraction logfile from 31. May 2013, 10:55
Lindsay Cooper / Sahara Dust
Used drive : SlimtypeeNAU508 5 Adapter: 1 ID: 0
Read mode : Secure
Utilize accurate stream : Yes
Defeat audio cache : Yes
Make use of C2 pointers : No
Read offset correction : 6
Overread into Lead-In and Lead-Out : No
Fill up missing offset samples with silence : Yes
Delete leading and trailing silent blocks : No
Null samples used in CRC calculations : Yes
Used interface : Native Win32 interface for Win NT & 2000
Gap handling : Appended to previous track
Used output format : User Defined Encoder
Selected bitrate : 768 kBit/s
Quality : High
Add ID3 tag : No
Command line compressor : C:\Program Files (x86)\Exact Audio Copy\Flac\flac.exe
Additional command line options : -8 -V -T "ARTIST=%artist%" -T "TITLE=%title%" -T "ALBUM=%albumtitle%" -T "DATE=%year%" -T "TRACKNUMBER=%tracknr%" -T "GENRE=%genre%" -T "PERFORMER=%albuminterpret%" -T "COMPOSER=%composer%" %haslyrics%--tag-from-file=LYRICS="%lyricsfile%"%haslyrics% -T "ALBUMARTIST=%albumartist%" -T "DISCNUMBER=%cdnumber%" -T "TOTALDISCS=%totalcds%" -T "TOTALTRACKS=%numtracks%" -T "COMMENT=%comment%" %source% -o %dest%
TOC of the extracted CD
Track | Start | Length | Start sector | End sector
---------------------------------------------------------
1 | 0:00.00 | 12:08.62 | 0 | 54661
2 | 12:08.62 | 6:15.00 | 54662 | 82786
3 | 18:23.62 | 8:23.38 | 82787 | 120549
4 | 26:47.25 | 10:49.42 | 120550 | 169266
5 | 37:36.67 | 6:19.08 | 169267 | 197699
Track 1
Filename C:\EAC rips\01 - Sahara Dust - Part 1.wav
Pre-gap length 0:00:02.00
Peak level 100.0 %
Extraction speed 1.3 X
Track quality 100.0 %
Test CRC 6C9B7B16
Copy CRC 6C9B7B16
Accurately ripped (confidence 5) [D601A847] (AR v1)
Copy OK
Track 2
Filename C:\EAC rips\02 - Sahara Dust - Part 2.wav
Peak level 91.9 %
Extraction speed 1.5 X
Track quality 100.0 %
Test CRC A4A5AEA8
Copy CRC A4A5AEA8
Accurately ripped (confidence 5) [319482EC] (AR v1)
Copy OK
Track 3
Filename C:\EAC rips\03 - Sahara Dust - Part 3.wav
Peak level 91.8 %
Extraction speed 1.7 X
Track quality 100.0 %
Test CRC 87A8303B
Copy CRC 87A8303B
Accurately ripped (confidence 5) [59C197D9] (AR v1)
Copy OK
Track 4
Filename C:\EAC rips\04 - Sahara Dust - Part 4.wav
Peak level 93.1 %
Extraction speed 1.9 X
Track quality 100.0 %
Test CRC 6B21CD61
Copy CRC 6B21CD61
Accurately ripped (confidence 5) [540A5BB6] (AR v1)
Copy OK
Track 5
Filename C:\EAC rips\05 - Sahara Dust - Part 5.wav
Peak level 100.0 %
Extraction speed 1.8 X
Track quality 99.9 %
Test CRC 3D7F2585
Copy CRC 3D7F2585
Accurately ripped (confidence 4) [B893AF15] (AR v1)
Copy OK
All tracks accurately ripped
No errors occurred
End of status report
---- CUETools DB Plugin V2.1.4
[CTDB TOCID: geIMAFSIOAmRKexY5TFsb14377M-] database access error: Le nom distant n'a pas pu être résolu: 'db.cuetools.net'
==== Log checksum 75097EF70AC74979EEE9056A43FCABEF9D3F50506C42579939B6625995A253DC ====
 
Содержание индексной карты (.CUE)
REM GENRE Jazz
REM DATE 1993
REM DISCID 340A4C05
REM COMMENT "ExactAudioCopy v1.0b3"
PERFORMER "Lindsay Cooper"
TITLE "Sahara Dust"
FILE "01 - Sahara Dust - Part 1.wav" WAVE
TRACK 01 AUDIO
TITLE "Sahara Dust - Part 1"
PERFORMER "Lindsay Cooper"
INDEX 01 00:00:00
FILE "02 - Sahara Dust - Part 2.wav" WAVE
TRACK 02 AUDIO
TITLE "Sahara Dust - Part 2"
PERFORMER "Lindsay Cooper"
INDEX 01 00:00:00
FILE "03 - Sahara Dust - Part 3.wav" WAVE
TRACK 03 AUDIO
TITLE "Sahara Dust - Part 3"
PERFORMER "Lindsay Cooper"
INDEX 01 00:00:00
FILE "04 - Sahara Dust - Part 4.wav" WAVE
TRACK 04 AUDIO
TITLE "Sahara Dust - Part 4"
PERFORMER "Lindsay Cooper"
INDEX 01 00:00:00
FILE "05 - Sahara Dust - Part 5.wav" WAVE
TRACK 05 AUDIO
TITLE "Sahara Dust - Part 5"
PERFORMER "Lindsay Cooper"
INDEX 01 00:00:00
Доп. информация: Recorded August 3-5, 1992, Radio Studio Zürich.
 
Состав
Phil Minton – Voice, Trumpet
Paul Jayasinha – Trumpet, Cello, Wind Synthesizer
Lindsay Cooper – Sopranino Saxophone, Bassoon
Dean Brodrick – Keyboards, Accordion, Bassoon
Elvira Plenar – Piano, Synthesizer
Robyn Schulkowsky – Percussion (Marimba, Timpani, Gong, Small Drum Kit, Tuned Metal Discs, Various Small Percussion Instruments)
Any questions -> support@pro-jazz.com. По всем вопросам пишите -> support@pro-jazz.com
14:05
261
Нет комментариев. Ваш будет первым!