Поиск

(Avant-Garde Jazz, Free Improvisation, FMR) [CD] Steve Hubback & Ad Peijnenburg - And Other Stuff - 2001, FLAC (tracks+.cue), lossless

Треклист:
Steve Hubback & Ad Peijnenburg / And Other Stuff
Жанр: Avant-Garde Jazz, Free Improvisation, FMR
Носитель: CD
Страна-производитель диска (релиза): UK
Год издания: 2001
Издатель (лейбл): FMR Records
Номер по каталогу: FMRCD75-0101
Страна исполнителя (группы): UK, Netherlands
Аудиокодек: FLAC (*.flac)
Тип рипа: tracks+.cue
Битрейт аудио: lossless
Продолжительность: 67:47
Источник (релизер): свой фирменный диск
Наличие сканов в содержимом раздачи:
Треклист:
1. Playing 4:38
2. Together 5:53
3. Different 3:26
4. Pitch 3:37
5. Moods 7:45
6. Short Things 1:24
7. From East 5:03
8. West 1:47
9. Down Under 6:03
10. An Asian Gospel 3:50
11. There Is No Greater Love 4:52
12. Folky Stuff 4:32
13. Abstract Stuff 8:10
14. Down To Earth 3:03
15. And Other Stuff 3:16
 
Лог создания рипа
Exact Audio Copy V1.0 beta 3 from 29. August 2011
EAC extraction logfile from 4. November 2014, 12:56
Steve Hubback & Ad Peijnenburg / And Other Stuff
Used drive : PIONEER DVD-RW DVR-115D Adapter: 0 ID: 0
Read mode : Secure
Utilize accurate stream : Yes
Defeat audio cache : Yes
Make use of C2 pointers : No
Read offset correction : 48
Overread into Lead-In and Lead-Out : No
Fill up missing offset samples with silence : Yes
Delete leading and trailing silent blocks : No
Null samples used in CRC calculations : Yes
Used interface : Installed external ASPI interface
Gap handling : Appended to previous track
Used output format : User Defined Encoder
Selected bitrate : 768 kBit/s
Quality : High
Add ID3 tag : No
Command line compressor : C:\Program Files\Exact Audio Copy\Flac\flac.exe
Additional command line options : -6 -V -T "ARTIST=%artist%" -T "TITLE=%title%" -T "ALBUM=%albumtitle%" -T "DATE=%year%" -T "TRACKNUMBER=%tracknr%" -T "GENRE=%genre%" -T "COMMENT=%comment%" -T "BAND=%albuminterpret%" -T "COMPOSER=%composer%" %haslyrics%--tag-from-file=LYRICS="%lyricsfile%"%haslyrics% -T "DISCNUMBER=%cdnumber%" -T "TOTALDISCS=%totalcds%" -T "TOTALTRACKS=%numtracks%" %hascover%--picture="%coverfile%"%hascover% %source% -o %dest%
TOC of the extracted CD
Track | Start | Length | Start sector | End sector
---------------------------------------------------------
1 | 0:00.00 | 4:40.15 | 0 | 21014
2 | 4:40.15 | 5:54.34 | 21015 | 47598
3 | 10:34.49 | 3:26.65 | 47599 | 63113
4 | 14:01.39 | 3:39.27 | 63114 | 79565
5 | 17:40.66 | 7:48.68 | 79566 | 114733
6 | 25:29.59 | 1:25.10 | 114734 | 121118
7 | 26:54.69 | 5:04.20 | 121119 | 143938
8 | 31:59.14 | 1:48.30 | 143939 | 152068
9 | 33:47.44 | 6:05.60 | 152069 | 179503
10 | 39:53.29 | 3:51.47 | 179504 | 196875
11 | 43:45.01 | 4:54.49 | 196876 | 218974
12 | 48:39.50 | 4:34.37 | 218975 | 239561
13 | 53:14.12 | 8:12.21 | 239562 | 276482
14 | 61:26.33 | 3:04.36 | 276483 | 290318
15 | 64:30.69 | 3:16.40 | 290319 | 305058
Track 1
Filename D:\zzz\01 - Playing.wav
Pre-gap length 0:00:02.00
Peak level 87.0 %
Extraction speed 4.0 X
Track quality 99.9 %
Test CRC D22CEB48
Copy CRC D22CEB48
Track not present in AccurateRip database
Copy OK
Track 2
Filename D:\zzz\02 - Together.wav
Pre-gap length 0:00:01.38
Peak level 87.0 %
Extraction speed 5.1 X
Track quality 100.0 %
Test CRC 10120D62
Copy CRC 10120D62
Track not present in AccurateRip database
Copy OK
Track 3
Filename D:\zzz\03 - Different.wav
Pre-gap length 0:00:00.69
Peak level 87.0 %
Extraction speed 5.2 X
Track quality 100.0 %
Test CRC CF1A9361
Copy CRC CF1A9361
Track not present in AccurateRip database
Copy OK
Track 4
Filename D:\zzz\04 - Pitch.wav
Pre-gap length 0:00:00.64
Peak level 81.7 %
Extraction speed 5.6 X
Track quality 100.0 %
Test CRC ECBDC769
Copy CRC ECBDC769
Track not present in AccurateRip database
Copy OK
Track 5
Filename D:\zzz\05 - Moods.wav
Pre-gap length 0:00:02.00
Peak level 87.0 %
Extraction speed 6.4 X
Track quality 100.0 %
Test CRC 106AB147
Copy CRC 106AB147
Track not present in AccurateRip database
Copy OK
Track 6
Filename D:\zzz\06 - Short Things.wav
Pre-gap length 0:00:03.03
Peak level 87.0 %
Extraction speed 5.2 X
Track quality 100.0 %
Test CRC D71AF611
Copy CRC D71AF611
Track not present in AccurateRip database
Copy OK
Track 7
Filename D:\zzz\07 - From East.wav
Pre-gap length 0:00:00.64
Peak level 87.0 %
Extraction speed 6.8 X
Track quality 100.0 %
Test CRC 60560128
Copy CRC 60560128
Track not present in AccurateRip database
Copy OK
Track 8
Filename D:\zzz\08 - West.wav
Pre-gap length 0:00:00.67
Peak level 18.3 %
Extraction speed 5.8 X
Track quality 100.0 %
Test CRC 8A623B04
Copy CRC 8A623B04
Track not present in AccurateRip database
Copy OK
Track 9
Filename D:\zzz\09 - Down Under.wav
Pre-gap length 0:00:00.57
Peak level 22.2 %
Extraction speed 7.3 X
Track quality 100.0 %
Test CRC ECF17A09
Copy CRC ECF17A09
Track not present in AccurateRip database
Copy OK
Track 10
Filename D:\zzz\10 - An Asian Gospel.wav
Pre-gap length 0:00:02.56
Peak level 87.0 %
Extraction speed 7.2 X
Track quality 100.0 %
Test CRC 9DD3B525
Copy CRC 9DD3B525
Track not present in AccurateRip database
Copy OK
Track 11
Filename D:\zzz\11 - There Is No Greater Love.wav
Pre-gap length 0:00:01.31
Peak level 87.0 %
Extraction speed 7.7 X
Track quality 100.0 %
Test CRC D42E09D1
Copy CRC D42E09D1
Track not present in AccurateRip database
Copy OK
Track 12
Filename D:\zzz\12 - Folky Stuff.wav
Pre-gap length 0:00:02.00
Peak level 87.0 %
Extraction speed 7.8 X
Track quality 100.0 %
Test CRC 8548ED68
Copy CRC 8548ED68
Track not present in AccurateRip database
Copy OK
Track 13
Filename D:\zzz\13 - Abstract Stuff.wav
Pre-gap length 0:00:01.71
Peak level 87.0 %
Extraction speed 8.6 X
Track quality 100.0 %
Test CRC D7214A78
Copy CRC D7214A78
Track not present in AccurateRip database
Copy OK
Track 14
Filename D:\zzz\14 - Down To Earth.wav
Pre-gap length 0:00:02.00
Peak level 87.0 %
Extraction speed 8.0 X
Track quality 100.0 %
Test CRC C333FA4C
Copy CRC C333FA4C
Track not present in AccurateRip database
Copy OK
Track 15
Filename D:\zzz\15 - And Other Stuff.wav
Pre-gap length 0:00:00.42
Peak level 77.2 %
Extraction speed 7.1 X
Track quality 99.9 %
Test CRC 0E3F3978
Copy CRC 0E3F3978
Track not present in AccurateRip database
Copy OK
None of the tracks are present in the AccurateRip database
No errors occurred
End of status report
==== Log checksum 8ACA6C42B25C496C15C75F368E5CC787351DD2CF5C18BD723453F17894A5A8B0 ====
 
Содержание индексной карты (.CUE)
REM GENRE "Avant-Garde Jazz"
REM DATE 2001
REM DISCID D90FE30F
REM COMMENT "ExactAudioCopy v1.0b3"
PERFORMER "Steve Hubback & Ad Peijnenburg"
TITLE "And Other Stuff"
FILE "01 - Playing.wav" WAVE
TRACK 01 AUDIO
TITLE "Playing"
PERFORMER "Steve Hubback & Ad Peijnenburg"
INDEX 01 00:00:00
TRACK 02 AUDIO
TITLE "Together"
PERFORMER "Steve Hubback & Ad Peijnenburg"
INDEX 00 04:38:52
FILE "02 - Together.wav" WAVE
INDEX 01 00:00:00
TRACK 03 AUDIO
TITLE "Different"
PERFORMER "Steve Hubback & Ad Peijnenburg"
INDEX 00 05:53:40
FILE "03 - Different.wav" WAVE
INDEX 01 00:00:00
TRACK 04 AUDIO
TITLE "Pitch"
PERFORMER "Steve Hubback & Ad Peijnenburg"
INDEX 00 03:26:01
FILE "04 - Pitch.wav" WAVE
INDEX 01 00:00:00
TRACK 05 AUDIO
TITLE "Moods"
PERFORMER "Steve Hubback & Ad Peijnenburg"
INDEX 00 03:37:27
FILE "05 - Moods.wav" WAVE
INDEX 01 00:00:00
TRACK 06 AUDIO
TITLE "Short Things"
PERFORMER "Steve Hubback & Ad Peijnenburg"
INDEX 00 07:45:65
FILE "06 - Short Things.wav" WAVE
INDEX 01 00:00:00
TRACK 07 AUDIO
TITLE "From East"
PERFORMER "Steve Hubback & Ad Peijnenburg"
INDEX 00 01:24:21
FILE "07 - From East.wav" WAVE
INDEX 01 00:00:00
TRACK 08 AUDIO
TITLE "West"
PERFORMER "Steve Hubback & Ad Peijnenburg"
INDEX 00 05:03:28
FILE "08 - West.wav" WAVE
INDEX 01 00:00:00
TRACK 09 AUDIO
TITLE "Down Under"
PERFORMER "Steve Hubback & Ad Peijnenburg"
INDEX 00 01:47:48
FILE "09 - Down Under.wav" WAVE
INDEX 01 00:00:00
TRACK 10 AUDIO
TITLE "An Asian Gospel"
PERFORMER "Steve Hubback & Ad Peijnenburg"
INDEX 00 06:03:04
FILE "10 - An Asian Gospel.wav" WAVE
INDEX 01 00:00:00
TRACK 11 AUDIO
TITLE "There Is No Greater Love"
PERFORMER "Steve Hubback & Ad Peijnenburg"
INDEX 00 03:50:16
FILE "11 - There Is No Greater Love.wav" WAVE
INDEX 01 00:00:00
TRACK 12 AUDIO
TITLE "Folky Stuff"
PERFORMER "Steve Hubback & Ad Peijnenburg"
INDEX 00 04:52:49
FILE "12 - Folky Stuff.wav" WAVE
INDEX 01 00:00:00
TRACK 13 AUDIO
TITLE "Abstract Stuff"
PERFORMER "Steve Hubback & Ad Peijnenburg"
INDEX 00 04:32:41
FILE "13 - Abstract Stuff.wav" WAVE
INDEX 01 00:00:00
TRACK 14 AUDIO
TITLE "Down To Earth"
PERFORMER "Steve Hubback & Ad Peijnenburg"
INDEX 00 08:10:21
FILE "14 - Down To Earth.wav" WAVE
INDEX 01 00:00:00
TRACK 15 AUDIO
TITLE "And Other Stuff"
PERFORMER "Steve Hubback & Ad Peijnenburg"
INDEX 00 03:03:69
FILE "15 - And Other Stuff.wav" WAVE
INDEX 01 00:00:00
 
Лог проверки качества
d:\>d:\aucdtect -d/-m0 d:\zzz\*.wav
auCDtect: CD records authenticity detector, version 0.8.2
Copyright (c) 2004 Oleg Berngardt. All rights reserved.
Copyright (c) 2004 Alexander Djourik. All rights reserved.
------------------------------------------------------------
Processing file: [01. Playing.wav]
------------------------------------------------------------
This track looks like CDDA with probability 100%
------------------------------------------------------------
Processing file: [02. Together.wav]
------------------------------------------------------------
This track looks like CDDA with probability 100%
------------------------------------------------------------
Processing file: [03. Different.wav]
------------------------------------------------------------
This track looks like CDDA with probability 100%
------------------------------------------------------------
Processing file: [04. Pitch.wav]
------------------------------------------------------------
This track looks like CDDA with probability 100%
------------------------------------------------------------
Processing file: [05. Moods.wav]
------------------------------------------------------------
This track looks like CDDA with probability 100%
------------------------------------------------------------
Processing file: [06. Short Things.wav]
------------------------------------------------------------
This track looks like CDDA with probability 100%
------------------------------------------------------------
Processing file: [07. From East.wav]
------------------------------------------------------------
This track looks like CDDA with probability 99%
------------------------------------------------------------
Processing file: [08. West.wav]
------------------------------------------------------------
This track looks like CDDA with probability 100%
------------------------------------------------------------
Processing file: [09. Down Under.wav]
------------------------------------------------------------
This track looks like CDDA with probability 100%
------------------------------------------------------------
Processing file: [10. An Asian Gospel.wav]
------------------------------------------------------------
This track looks like CDDA with probability 100%
------------------------------------------------------------
Processing file: [11. There Is No Greater Love.wav]
------------------------------------------------------------
This track looks like CDDA with probability 100%
------------------------------------------------------------
Processing file: [12. Folky Stuff.wav]
------------------------------------------------------------
This track looks like CDDA with probability 100%
------------------------------------------------------------
Processing file: [13. Abstract Stuff.wav]
------------------------------------------------------------
This track looks like CDDA with probability 100%
------------------------------------------------------------
Processing file: [14. Down To Earth.wav]
------------------------------------------------------------
This track looks like CDDA with probability 100%
------------------------------------------------------------
Processing file: [15. And Other Stuff.wav]
------------------------------------------------------------
This track looks like CDDA with probability 100%
------------------------------------------------------------
Final Conclusion:
------------------------------------------------------------
These tracks looks like CDDA with probability 100%
Доп. информация:
 
Album Info & Review
All tracks by Hubback / Peijnenburg except 11 which is by Symes / Jones
Recorded on 22-2 and 25-2-2000 at 2B Eindhoven, Holland
Mastering Pieter from Devoid Studio Eindhoven.
Eccentric dutch saxophonist meets crazy British percussionist!! Perhaps an unlikely combination on the face of it, but this pairing produces dynamite improvised music of rare quality. ‘And Other Stuff’ introduces a major saxophone find to couple Steve’s recent series of duo CDs, the last being he stunning release with Norwegian saxophonist Frode Gjerstad. - FMR Records
 
Состав
Steve Hubback: percussion
Ad Peijnenburg: baritonesax, sopraninosax, bombarde, hichiriki
По всем вопросам пишите личное сообщение пользователю M0p94ok.
06:51
92
Нет комментариев. Ваш будет первым!