Вы используете незарегистрированную версию компонента "Вкладки"!

Поиск

(Avant-Garde Jazz, Free Improvisation, Edgetone) [CD] Bloom Project (Thollem McDonas & Rent Romus) - Sudden Aurora - 2009, FLAC (tracks+.cue), lossless

(Avant-Garde Jazz, Free Improvisation, Edgetone) [CD] Bloom Project (Thollem McDonas & Rent Romus) - Sudden Aurora - 2009, FLAC (tracks+.cue), lossless
Треклист:
Bloom Project / Sudden Aurora
Жанр: Avant-Garde Jazz, Free Improvisation, Edgetone
Носитель: CD
Страна-производитель диска (релиза): US
Год издания: 2009
Издатель (лейбл): Edgetone Records
Номер по каталогу: EDT4083
Страна исполнителя (группы): US
Аудиокодек: FLAC (*.flac)
Тип рипа: tracks+.cue
Битрейт аудио: lossless
Продолжительность: 54:22
Источник (релизер): свой фирменный диск
Наличие сканов в содержимом раздачи:
Треклист:
1. New Light 3:37
2. Radiance 4:39
3. In Noontide 5:37
4. Intimation Dusk 5:01
5. Of Reflection Veil 6:28
6. The Phantom Shade 2:53
7. Shimmers Towards 4:19
8. Sudden Aurora 5:09
9. The Sphere Pyre 4:55
10. Apparition Of Coruscation 2:50
11. Billow Ray Glows 4:21
12. Glimmers In The Twilight 0:47
13. Shines 3:36
 
Лог создания рипа
Exact Audio Copy V1.0 beta 3 from 29. August 2011
EAC extraction logfile from 22. September 2014, 17:13
Bloom Project / Sudden Aurora
Used drive : PIONEER DVD-RW DVR-115D Adapter: 0 ID: 0
Read mode : Secure
Utilize accurate stream : Yes
Defeat audio cache : Yes
Make use of C2 pointers : No
Read offset correction : 48
Overread into Lead-In and Lead-Out : No
Fill up missing offset samples with silence : Yes
Delete leading and trailing silent blocks : No
Null samples used in CRC calculations : Yes
Used interface : Installed external ASPI interface
Gap handling : Appended to previous track
Used output format : User Defined Encoder
Selected bitrate : 768 kBit/s
Quality : High
Add ID3 tag : No
Command line compressor : C:\Program Files\Exact Audio Copy\Flac\flac.exe
Additional command line options : -6 -V -T "ARTIST=%artist%" -T "TITLE=%title%" -T "ALBUM=%albumtitle%" -T "DATE=%year%" -T "TRACKNUMBER=%tracknr%" -T "GENRE=%genre%" -T "COMMENT=%comment%" -T "BAND=%albuminterpret%" -T "COMPOSER=%composer%" %haslyrics%--tag-from-file=LYRICS="%lyricsfile%"%haslyrics% -T "DISCNUMBER=%cdnumber%" -T "TOTALDISCS=%totalcds%" -T "TOTALTRACKS=%numtracks%" %hascover%--picture="%coverfile%"%hascover% %source% -o %dest%
TOC of the extracted CD
Track | Start | Length | Start sector | End sector
---------------------------------------------------------
1 | 0:00.00 | 3:45.33 | 0 | 16907
2 | 3:45.33 | 4:39.15 | 16908 | 37847
3 | 8:24.48 | 5:40.72 | 37848 | 63419
4 | 14:05.45 | 5:01.57 | 63420 | 86051
5 | 19:07.27 | 6:30.17 | 86052 | 115318
6 | 25:37.44 | 2:55.52 | 115319 | 128495
7 | 28:33.21 | 4:21.05 | 128496 | 148075
8 | 32:54.26 | 5:11.21 | 148076 | 171421
9 | 38:05.47 | 4:55.71 | 171422 | 193617
10 | 43:01.43 | 2:39.15 | 193618 | 205557
11 | 45:40.58 | 4:21.18 | 205558 | 225150
12 | 50:02.01 | 0:47.01 | 225151 | 228676
13 | 50:49.02 | 3:33.30 | 228677 | 244681
Track 1
Filename D:\zzz\01 - New Light.wav
Pre-gap length 0:00:02.00
Peak level 91.9 %
Extraction speed 3.8 X
Track quality 99.9 %
Test CRC A38A1C6A
Copy CRC A38A1C6A
Track not present in AccurateRip database
Copy OK
Track 2
Filename D:\zzz\02 - Radiance.wav
Pre-gap length 0:00:04.00
Peak level 65.7 %
Extraction speed 4.4 X
Track quality 99.9 %
Test CRC 50C196E3
Copy CRC 50C196E3
Track not present in AccurateRip database
Copy OK
Track 3
Filename D:\zzz\03 - In Noontide.wav
Pre-gap length 0:00:02.00
Peak level 90.3 %
Extraction speed 5.0 X
Track quality 99.9 %
Test CRC 823AA1CF
Copy CRC 823AA1CF
Track not present in AccurateRip database
Copy OK
Track 4
Filename D:\zzz\04 - Intimation Dusk.wav
Pre-gap length 0:00:03.00
Peak level 100.0 %
Extraction speed 5.3 X
Track quality 99.9 %
Test CRC C26FD467
Copy CRC C26FD467
Track not present in AccurateRip database
Copy OK
Track 5
Filename D:\zzz\05 - Of Reflection Veil.wav
Pre-gap length 0:00:03.00
Peak level 96.5 %
Extraction speed 6.5 X
Track quality 100.0 %
Test CRC 785EED39
Copy CRC 785EED39
Track not present in AccurateRip database
Copy OK
Track 6
Filename D:\zzz\06 - The Phantom Shade.wav
Pre-gap length 0:00:03.00
Peak level 100.0 %
Extraction speed 6.2 X
Track quality 100.0 %
Test CRC C370C218
Copy CRC C370C218
Track not present in AccurateRip database
Copy OK
Track 7
Filename D:\zzz\07 - Shimmers Towards.wav
Pre-gap length 0:00:04.00
Peak level 66.1 %
Extraction speed 6.8 X
Track quality 100.0 %
Test CRC 7CC72560
Copy CRC 7CC72560
Track not present in AccurateRip database
Copy OK
Track 8
Filename D:\zzz\08 - Sudden Aurora.wav
Pre-gap length 0:00:04.00
Peak level 100.0 %
Extraction speed 7.3 X
Track quality 100.0 %
Test CRC 61228BA0
Copy CRC 61228BA0
Track not present in AccurateRip database
Copy OK
Track 9
Filename D:\zzz\09 - The Sphere Pyre.wav
Pre-gap length 0:00:04.00
Peak level 58.1 %
Extraction speed 7.4 X
Track quality 100.0 %
Test CRC E2D8FF01
Copy CRC E2D8FF01
Track not present in AccurateRip database
Copy OK
Track 10
Filename D:\zzz\10 - Apparition Of Coruscation.wav
Pre-gap length 0:00:03.00
Peak level 66.7 %
Extraction speed 7.1 X
Track quality 100.0 %
Test CRC 59D8874B
Copy CRC 59D8874B
Track not present in AccurateRip database
Copy OK
Track 11
Filename D:\zzz\11 - Billow Ray Glows.wav
Pre-gap length 0:00:03.00
Peak level 60.0 %
Extraction speed 6.9 X
Track quality 99.9 %
Test CRC BAE6594F
Copy CRC BAE6594F
Track not present in AccurateRip database
Copy OK
Track 12
Filename D:\zzz\12 - Glimmers In The Twilight.wav
Pre-gap length 0:00:02.00
Peak level 0.0 %
Extraction speed 5.0 X
Track quality 100.0 %
Test CRC EAF1995A
Copy CRC EAF1995A
Track not present in AccurateRip database
Copy OK
Track 13
Filename D:\zzz\13 - Shines.wav
Peak level 100.0 %
Extraction speed 7.8 X
Track quality 100.0 %
Test CRC 7897C8B2
Copy CRC 7897C8B2
Track not present in AccurateRip database
Copy OK
None of the tracks are present in the AccurateRip database
No errors occurred
End of status report
==== Log checksum FA03BA80AB191930330282947D0810355911D3960D322B72350D6A3ED350453B ====
 
Содержание индексной карты (.CUE)
REM GENRE "Avant-Garde Jazz"
REM DATE 2009
REM DISCID B50CBE0D
REM COMMENT "ExactAudioCopy v1.0b3"
PERFORMER "Bloom Project"
TITLE "Sudden Aurora"
FILE "01 - New Light.wav" WAVE
TRACK 01 AUDIO
TITLE "New Light"
PERFORMER "Bloom Project"
INDEX 01 00:00:00
TRACK 02 AUDIO
TITLE "Radiance"
PERFORMER "Bloom Project"
INDEX 00 03:41:33
FILE "02 - Radiance.wav" WAVE
INDEX 01 00:00:00
TRACK 03 AUDIO
TITLE "In Noontide"
PERFORMER "Bloom Project"
INDEX 00 04:37:15
FILE "03 - In Noontide.wav" WAVE
INDEX 01 00:00:00
TRACK 04 AUDIO
TITLE "Intimation Dusk"
PERFORMER "Bloom Project"
INDEX 00 05:37:72
FILE "04 - Intimation Dusk.wav" WAVE
INDEX 01 00:00:00
TRACK 05 AUDIO
TITLE "Of Reflection Veil"
PERFORMER "Bloom Project"
INDEX 00 04:58:57
FILE "05 - Of Reflection Veil.wav" WAVE
INDEX 01 00:00:00
TRACK 06 AUDIO
TITLE "The Phantom Shade"
PERFORMER "Bloom Project"
INDEX 00 06:27:17
FILE "06 - The Phantom Shade.wav" WAVE
INDEX 01 00:00:00
TRACK 07 AUDIO
TITLE "Shimmers Towards"
PERFORMER "Bloom Project"
INDEX 00 02:51:52
FILE "07 - Shimmers Towards.wav" WAVE
INDEX 01 00:00:00
TRACK 08 AUDIO
TITLE "Sudden Aurora"
PERFORMER "Bloom Project"
INDEX 00 04:17:05
FILE "08 - Sudden Aurora.wav" WAVE
INDEX 01 00:00:00
TRACK 09 AUDIO
TITLE "The Sphere Pyre"
PERFORMER "Bloom Project"
INDEX 00 05:07:21
FILE "09 - The Sphere Pyre.wav" WAVE
INDEX 01 00:00:00
TRACK 10 AUDIO
TITLE "Apparition Of Coruscation"
PERFORMER "Bloom Project"
INDEX 00 04:52:71
FILE "10 - Apparition Of Coruscation.wav" WAVE
INDEX 01 00:00:00
TRACK 11 AUDIO
TITLE "Billow Ray Glows"
PERFORMER "Bloom Project"
INDEX 00 02:36:15
FILE "11 - Billow Ray Glows.wav" WAVE
INDEX 01 00:00:00
TRACK 12 AUDIO
TITLE "Glimmers In The Twilight"
PERFORMER "Bloom Project"
INDEX 00 04:19:18
FILE "12 - Glimmers In The Twilight.wav" WAVE
INDEX 01 00:00:00
FILE "13 - Shines.wav" WAVE
TRACK 13 AUDIO
TITLE "Shines"
PERFORMER "Bloom Project"
INDEX 01 00:00:00
 
Лог проверки качества
d:\>d:\aucdtect -d/-m0 d:\zzz\*.wav
auCDtect: CD records authenticity detector, version 0.8.2
Copyright (c) 2004 Oleg Berngardt. All rights reserved.
Copyright (c) 2004 Alexander Djourik. All rights reserved.
------------------------------------------------------------
Processing file: [01. New Light.wav]
------------------------------------------------------------
This track looks like CDDA with probability 100%
------------------------------------------------------------
Processing file: [02. Radiance.wav]
------------------------------------------------------------
This track looks like CDDA with probability 100%
------------------------------------------------------------
Processing file: [03. In Noontide.wav]
------------------------------------------------------------
This track looks like CDDA with probability 100%
------------------------------------------------------------
Processing file: [04. Intimation Dusk.wav]
------------------------------------------------------------
This track looks like CDDA with probability 100%
------------------------------------------------------------
Processing file: [05. Of Reflection Veil.wav]
------------------------------------------------------------
This track looks like CDDA with probability 99%
------------------------------------------------------------
Processing file: [06. The Phantom Shade.wav]
------------------------------------------------------------
This track looks like CDDA with probability 100%
------------------------------------------------------------
Processing file: [07. Shimmers Towards.wav]
------------------------------------------------------------
This track looks like CDDA with probability 100%
------------------------------------------------------------
Processing file: [08. Sudden Aurora.wav]
------------------------------------------------------------
This track looks like CDDA with probability 100%
------------------------------------------------------------
Processing file: [09. The Sphere Pyre.wav]
------------------------------------------------------------
This track looks like CDDA with probability 100%
------------------------------------------------------------
Processing file: [10. Apparition Of Coruscation.wav]
------------------------------------------------------------
This track looks like CDDA with probability 100%
------------------------------------------------------------
Processing file: [11. Billow Ray Glows.wav]
------------------------------------------------------------
This track looks like CDDA with probability 99%
------------------------------------------------------------
Processing file: [12. Glimmers In The Twilight.wav]
------------------------------------------------------------
This track looks like CDDA with probability 100%
------------------------------------------------------------
Processing file: [13. Shines.wav]
------------------------------------------------------------
This track looks like CDDA with probability 100%
------------------------------------------------------------
Final Conclusion:
------------------------------------------------------------
These tracks looks like CDDA with probability 100%
Доп. информация:
 
Album Info & Review
Recorded live on 10/19/08 @ SIMM Music Series San Francisco, CA (1,8,11,13) & 12/20/08 @ 1510 Performance Space Oakland, CA (2,3,4,5,6,7,9,10)
Recorded, mixed and mastered by Clyde Niesen Sonic Stew Records
Original cover art by CJ Borosque
Graphic design Rent Romus
Photo of Rent Romus by Peter B Kaars
Photo of Thollem McDonas by Benoit Foulon
Bloom Project is a spirited San Francisco based collaboration between international acclaimed pianist Thollem Mcdonas and multi-saxophonist and producer Rent Romus. The music reaches across genres to present a free form construction of expression combining disparate and divergent stylistic histories with a sense of refreshing immediacy, intensity, and spontaneous inventiveness. Their third project Sudden Aurora brings the core duo home exploring the more subtle sounds found within the acoustic range of their musical backgrounds. - Downtown Music Gallery
 
Состав
Thollem McDonas: piano
Rent Romus: alto & soprano saxophones
По всем вопросам пишите личное сообщение пользователю M0p94ok.
06:51
129
Нет комментариев. Ваш будет первым!