Вы используете незарегистрированную версию компонента "Вкладки"!

Поиск

(Avant-Garde Jazz, Free Improvisation, FMP) [CD] Manuela+ (Rudiger Carl, Hans Reichel, Carlos Zingaro, Jin Hi Kim) - Live In Berlin - 1999, FLAC (tracks+.cue), lossless

(Avant-Garde Jazz, Free Improvisation, FMP) [CD] Manuela+ (Rudiger Carl, Hans Reichel, Carlos Zingaro, Jin Hi Kim) - Live In Berlin - 1999, FLAC (tracks+.cue), lossless
Треклист:
Manuela+ / Live In Berlin
Жанр: Avant-Garde Jazz, Free Improvisation, FMP
Носитель: CD
Страна-производитель диска: Germany
Год издания: 2010
Издатель (лейбл): FMP Records
Номер по каталогу: FMP CD 146
Страна: Germany
Аудиокодек: FLAC (*.flac)
Тип рипа: tracks+.cue
Битрейт аудио: lossless
Продолжительность: 65:33
Источник (релизер): waffles.fm, mattdrummist
Наличие сканов в содержимом раздачи:
Треклист:
Ei! Improvisiererei...!
1 Ei! 9:23
2 Im 7:11
3 Pro 6:45
4 Vi 8:45
5 Sie 13:10
6 Re 10:33
7 Rei...! 6:34
-
8 Those Were The Days 3:07
 
Лог создания рипа
X Lossless Decoder version 20121027 (142.1)
XLD extraction logfile from 2012-11-26 23:04:59 +0300
Manuela+ / Live in Berlin
Used drive : MATSHITA CD-RW CW-8221 (revision GA0K)
Ripper mode : XLD Secure Ripper
Disable audio cache : OK for the drive with a cache less than 1375KiB
Make use of C2 pointers : NO
Read offset correction : 102
Max retry count : 20
Gap status : Analyzed, Appended (except HTOA)
TOC of the extracted CD
Track | Start | Length | Start sector | End sector
---------------------------------------------------------
1 | 00:00:00 | 09:23:66 | 0 | 42290
2 | 09:23:66 | 07:11:53 | 42291 | 74668
3 | 16:35:44 | 06:45:40 | 74669 | 105083
4 | 23:21:09 | 08:45:30 | 105084 | 144488
5 | 32:06:39 | 13:10:64 | 144489 | 203802
6 | 45:17:28 | 10:33:44 | 203803 | 251321
7 | 55:50:72 | 06:34:48 | 251322 | 280919
8 | 62:25:45 | 03:07:59 | 280920 | 295003
AccurateRip Summary (DiscID: 0015534e-008e741f-7c0f5d08)
Track 01 : OK (v2, confidence 2/2)
Track 02 : OK (v2, confidence 2/2)
Track 03 : OK (v2, confidence 2/2)
Track 04 : OK (v2, confidence 2/2)
Track 05 : OK (v2, confidence 2/2)
Track 06 : OK (v2, confidence 2/2)
Track 07 : OK (v2, confidence 2/2)
Track 08 : OK (v2, confidence 2/2)
->All tracks accurately ripped.
All Tracks
Album gain : -1.00 dB
Peak : 0.895996
Statistics
Read error : 0
Jitter error (maybe fixed) : 0
Retry sector count : 0
Damaged sector count : 0
Track 01
Filename : /My/Music/_Grabbed/Manuela+ - 2010 - Live in Berlin [FLAC]/01 - Ei!.flac
/My/Music/_Grabbed/Manuela+ - 2010 - Live in Berlin [MP3 320]/01 - Ei!.mp3
/My/Music/_Grabbed/Manuela+ - 2010 - Live in Berlin [MP3 V0]/01 - Ei!.mp3
Pre-gap length : 00:02:00
Track gain : -1.34 dB
Peak : 0.895966
CRC32 hash (test run) : 4441F3E0
CRC32 hash : 4441F3E0
CRC32 hash (skip zero) : B83CB5B8
AccurateRip v1 signature : D6FF0B4A
AccurateRip v2 signature : 117BDFAA
->Accurately ripped (v2, confidence 2/2)
Statistics
Read error : 0
Jitter error (maybe fixed) : 0
Retry sector count : 0
Damaged sector count : 0
Track 02
Filename : /My/Music/_Grabbed/Manuela+ - 2010 - Live in Berlin [FLAC]/02 - Im.flac
/My/Music/_Grabbed/Manuela+ - 2010 - Live in Berlin [MP3 320]/02 - Im.mp3
/My/Music/_Grabbed/Manuela+ - 2010 - Live in Berlin [MP3 V0]/02 - Im.mp3
Track gain : 0.29 dB
Peak : 0.698151
CRC32 hash (test run) : ECDD3449
CRC32 hash : ECDD3449
CRC32 hash (skip zero) : 4568FE74
AccurateRip v1 signature : 3CB6699F
AccurateRip v2 signature : F74B989A
->Accurately ripped (v2, confidence 2/2)
Statistics
Read error : 0
Jitter error (maybe fixed) : 0
Retry sector count : 0
Damaged sector count : 0
Track 03
Filename : /My/Music/_Grabbed/Manuela+ - 2010 - Live in Berlin [FLAC]/03 - pro.flac
/My/Music/_Grabbed/Manuela+ - 2010 - Live in Berlin [MP3 320]/03 - pro.mp3
/My/Music/_Grabbed/Manuela+ - 2010 - Live in Berlin [MP3 V0]/03 - pro.mp3
Track gain : -0.73 dB
Peak : 0.895996
CRC32 hash (test run) : E1D0EAFF
CRC32 hash : E1D0EAFF
CRC32 hash (skip zero) : ECEFE18D
AccurateRip v1 signature : B3E1B144
AccurateRip v2 signature : 8183CE8E
->Accurately ripped (v2, confidence 2/2)
Statistics
Read error : 0
Jitter error (maybe fixed) : 0
Retry sector count : 0
Damaged sector count : 0
Track 04
Filename : /My/Music/_Grabbed/Manuela+ - 2010 - Live in Berlin [FLAC]/04 - vi.flac
/My/Music/_Grabbed/Manuela+ - 2010 - Live in Berlin [MP3 320]/04 - vi.mp3
/My/Music/_Grabbed/Manuela+ - 2010 - Live in Berlin [MP3 V0]/04 - vi.mp3
Track gain : -1.34 dB
Peak : 0.828918
CRC32 hash (test run) : 6BCAC68B
CRC32 hash : 6BCAC68B
CRC32 hash (skip zero) : A995CD03
AccurateRip v1 signature : 4544A983
AccurateRip v2 signature : BF4B25FC
->Accurately ripped (v2, confidence 2/2)
Statistics
Read error : 0
Jitter error (maybe fixed) : 0
Retry sector count : 0
Damaged sector count : 0
Track 05
Filename : /My/Music/_Grabbed/Manuela+ - 2010 - Live in Berlin [FLAC]/05 - sie.flac
/My/Music/_Grabbed/Manuela+ - 2010 - Live in Berlin [MP3 320]/05 - sie.mp3
/My/Music/_Grabbed/Manuela+ - 2010 - Live in Berlin [MP3 V0]/05 - sie.mp3
Track gain : -1.67 dB
Peak : 0.851501
CRC32 hash (test run) : 83CE8224
CRC32 hash : 83CE8224
CRC32 hash (skip zero) : C7345328
AccurateRip v1 signature : 9E0DAB66
AccurateRip v2 signature : D68B61D0
->Accurately ripped (v2, confidence 2/2)
Statistics
Read error : 0
Jitter error (maybe fixed) : 0
Retry sector count : 0
Damaged sector count : 0
Track 06
Filename : /My/Music/_Grabbed/Manuela+ - 2010 - Live in Berlin [FLAC]/06 - re.flac
/My/Music/_Grabbed/Manuela+ - 2010 - Live in Berlin [MP3 320]/06 - re.mp3
/My/Music/_Grabbed/Manuela+ - 2010 - Live in Berlin [MP3 V0]/06 - re.mp3
Track gain : -0.57 dB
Peak : 0.895966
CRC32 hash (test run) : C7AF4E32
CRC32 hash : C7AF4E32
CRC32 hash (skip zero) : 5F75ED0C
AccurateRip v1 signature : A3FB31C6
AccurateRip v2 signature : 6250FEDC
->Accurately ripped (v2, confidence 2/2)
Statistics
Read error : 0
Jitter error (maybe fixed) : 0
Retry sector count : 0
Damaged sector count : 0
Track 07
Filename : /My/Music/_Grabbed/Manuela+ - 2010 - Live in Berlin [FLAC]/07 - rei...!.flac
/My/Music/_Grabbed/Manuela+ - 2010 - Live in Berlin [MP3 320]/07 - rei...!.mp3
/My/Music/_Grabbed/Manuela+ - 2010 - Live in Berlin [MP3 V0]/07 - rei...!.mp3
Track gain : -0.32 dB
Peak : 0.826813
CRC32 hash (test run) : 72072E6C
CRC32 hash : 72072E6C
CRC32 hash (skip zero) : B0B08326
AccurateRip v1 signature : ED70ACB9
AccurateRip v2 signature : CCC76162
->Accurately ripped (v2, confidence 2/2)
Statistics
Read error : 0
Jitter error (maybe fixed) : 0
Retry sector count : 0
Damaged sector count : 0
Track 08
Filename : /My/Music/_Grabbed/Manuela+ - 2010 - Live in Berlin [FLAC]/08 - Those Were The Days.flac
/My/Music/_Grabbed/Manuela+ - 2010 - Live in Berlin [MP3 320]/08 - Those Were The Days.mp3
/My/Music/_Grabbed/Manuela+ - 2010 - Live in Berlin [MP3 V0]/08 - Those Were The Days.mp3
Track gain : -0.03 dB
Peak : 0.700287
CRC32 hash (test run) : 9DB34241
CRC32 hash : 9DB34241
CRC32 hash (skip zero) : 6C9E3271
AccurateRip v1 signature : C0DBB299
AccurateRip v2 signature : 45EF538F
->Accurately ripped (v2, confidence 2/2)
Statistics
Read error : 0
Jitter error (maybe fixed) : 0
Retry sector count : 0
Damaged sector count : 0
No errors occurred
End of status report
 
Содержание индексной карты (.CUE)
TITLE "Live in Berlin"
PERFORMER "Manuela+"
REM GENRE "Free Jazz"
REM DATE "2010"
REM DISCID 7C0F5D08
REM REPLAYGAIN_ALBUM_GAIN -1.00 dB
REM REPLAYGAIN_ALBUM_PEAK 0.895996
FILE "01 - Ei.flac" WAVE
TRACK 01 AUDIO
TITLE "Ei!"
FLAGS DCP
REM COMMENT "Recorded on 6 November 1999 during the Total Music Meeting at Podewil, Berlin"
REM REPLAYGAIN_TRACK_GAIN -1.34 dB
REM REPLAYGAIN_TRACK_PEAK 0.895966
INDEX 01 00:00:00
FILE "02 - Im.flac" WAVE
TRACK 02 AUDIO
TITLE "Im"
FLAGS DCP
REM COMMENT "Recorded on 6 November 1999 during the Total Music Meeting at Podewil, Berlin"
REM REPLAYGAIN_TRACK_GAIN 0.29 dB
REM REPLAYGAIN_TRACK_PEAK 0.698151
INDEX 01 00:00:00
FILE "03 - pro.flac" WAVE
TRACK 03 AUDIO
TITLE "pro"
FLAGS DCP
REM COMMENT "Recorded on 6 November 1999 during the Total Music Meeting at Podewil, Berlin"
REM REPLAYGAIN_TRACK_GAIN -0.73 dB
REM REPLAYGAIN_TRACK_PEAK 0.895996
INDEX 01 00:00:00
FILE "04 - vi.flac" WAVE
TRACK 04 AUDIO
TITLE "vi"
FLAGS DCP
REM COMMENT "Recorded on 6 November 1999 during the Total Music Meeting at Podewil, Berlin"
REM REPLAYGAIN_TRACK_GAIN -1.34 dB
REM REPLAYGAIN_TRACK_PEAK 0.828918
INDEX 01 00:00:00
FILE "05 - sie.flac" WAVE
TRACK 05 AUDIO
TITLE "sie"
FLAGS DCP
REM COMMENT "Recorded on 6 November 1999 during the Total Music Meeting at Podewil, Berlin"
REM REPLAYGAIN_TRACK_GAIN -1.67 dB
REM REPLAYGAIN_TRACK_PEAK 0.851501
INDEX 01 00:00:00
FILE "06 - re.flac" WAVE
TRACK 06 AUDIO
TITLE "re"
FLAGS DCP
REM COMMENT "Recorded on 6 November 1999 during the Total Music Meeting at Podewil, Berlin"
REM REPLAYGAIN_TRACK_GAIN -0.57 dB
REM REPLAYGAIN_TRACK_PEAK 0.895966
INDEX 01 00:00:00
FILE "07 - rei.flac" WAVE
TRACK 07 AUDIO
TITLE "rei...!"
FLAGS DCP
REM COMMENT "Recorded on 6 November 1999 during the Total Music Meeting at Podewil, Berlin"
REM REPLAYGAIN_TRACK_GAIN -0.32 dB
REM REPLAYGAIN_TRACK_PEAK 0.826813
INDEX 01 00:00:00
FILE "08 - Those Were The Days.flac" WAVE
TRACK 08 AUDIO
TITLE "Those Were The Days"
FLAGS DCP
REM COMMENT "Recorded on 6 November 1999 during the Total Music Meeting at Podewil, Berlin"
REM REPLAYGAIN_TRACK_GAIN -0.03 dB
REM REPLAYGAIN_TRACK_PEAK 0.700287
INDEX 01 00:00:00
 
Лог проверки качества
d:\>d:\aucdtect -d/-m0 d:\zzz\*.wav
auCDtect: CD records authenticity detector, version 0.8.2
Copyright (c) 2004 Oleg Berngardt. All rights reserved.
Copyright (c) 2004 Alexander Djourik. All rights reserved.
------------------------------------------------------------
Processing file: [01. Ei!.wav]
------------------------------------------------------------
This track looks like CDDA with probability 100%
------------------------------------------------------------
Processing file: [02. Im.wav]
------------------------------------------------------------
This track looks like CDDA with probability 100%
------------------------------------------------------------
Processing file: [03. pro.wav]
------------------------------------------------------------
This track looks like CDDA with probability 100%
------------------------------------------------------------
Processing file: [04. vi.wav]
------------------------------------------------------------
This track looks like CDDA with probability 100%
------------------------------------------------------------
Processing file: [05. sie.wav]
------------------------------------------------------------
This track looks like CDDA with probability 100%
------------------------------------------------------------
Processing file: [06. re.wav]
------------------------------------------------------------
This track looks like CDDA with probability 100%
------------------------------------------------------------
Processing file: [07. rei...!.wav]
------------------------------------------------------------
This track looks like CDDA with probability 100%
------------------------------------------------------------
Processing file: [08. Those Were The Days.wav]
------------------------------------------------------------
This track looks like CDDA with probability 100%
------------------------------------------------------------
Final Conclusion:
------------------------------------------------------------
These tracks looks like CDDA with probability 100%
 
Состав
Clarinet, Accordion, Claviola – Rüdiger Carl
Geomungo [Komungo] – Jin Hi Kim
Guitar, Idiophone [Daxophone] – Hans Reichel
Violin – Carlos Zíngaro
По всем вопросам пишите личное сообщение пользователю M0p94ok.
01:56
156
Нет комментариев. Ваш будет первым!