Поиск

(Avant-Garde Jazz, Free Improvisation, FMP) [CD] Manfred Schulze Blaser Quintett - Choral-Konzert - 1998, FLAC (tracks+.cue), lossless

(Avant-Garde Jazz, Free Improvisation, FMP) [CD] Manfred Schulze Blaser Quintett - Choral-Konzert - 1998, FLAC (tracks+.cue), lossless
Manfred Schulze Blaser Quintett / Choral-Konzert
Жанр: Avant-Garde Jazz, Free Improvisation, FMP
Носитель: CD
Страна-производитель диска: Germany
Год издания: 2010
Издатель (лейбл): FMP Records
Номер по каталогу: FMP CD 145
Страна: Germany
Аудиокодек: FLAC (*.flac)
Тип рипа: tracks+.cue
Битрейт аудио: lossless
Продолжительность: 62:48
Источник (релизер): waffles.fm, mattdrummist
Наличие сканов в содержимом раздачи:
Треклист:
1 Bounce Nr. 2 (Choral) 4:55
2 B-A-C-H 16:34
3 Choral-Konzert 37:09
4 Dresden Suite (4. Satz) 4:09
 
Лог создания рипа
X Lossless Decoder version 20121027 (142.1)
XLD extraction logfile from 2012-11-26 22:27:11 +0300
Manfred Schulze Bläser Quintett / Choral-Konzert
Used drive : MATSHITA CD-RW CW-8221 (revision GA0K)
Ripper mode : XLD Secure Ripper
Disable audio cache : OK for the drive with a cache less than 1375KiB
Make use of C2 pointers : NO
Read offset correction : 102
Max retry count : 20
Gap status : Analyzed, Appended (except HTOA)
TOC of the extracted CD
Track | Start | Length | Start sector | End sector
---------------------------------------------------------
1 | 00:00:00 | 04:55:61 | 0 | 22185
2 | 04:55:61 | 16:34:30 | 22186 | 96765
3 | 21:30:16 | 37:09:26 | 96766 | 263966
4 | 58:39:42 | 04:09:09 | 263967 | 282650
AccurateRip Summary (DiscID: 000a27e2-002ac852-2d0eb804)
Track 01 : OK (v2, confidence 1/1)
Track 02 : OK (v2, confidence 1/1)
Track 03 : OK (v2, confidence 1/1)
Track 04 : OK (v2, confidence 1/1)
->All tracks accurately ripped.
All Tracks
Album gain : -0.59 dB
Peak : 0.999969
Statistics
Read error : 0
Jitter error (maybe fixed) : 0
Retry sector count : 0
Damaged sector count : 0
Track 01
Filename : /My/Music/_Grabbed/Manfred Schulze Bläser Quintett - 2010 - Choral-Konzert [FLAC]/01 - Bounce Nr. 2.flac
/My/Music/_Grabbed/Manfred Schulze Bläser Quintett - 2010 - Choral-Konzert [MP3 320]/01 - Bounce Nr. 2.mp3
/My/Music/_Grabbed/Manfred Schulze Bläser Quintett - 2010 - Choral-Konzert [MP3 V0]/01 - Bounce Nr. 2.mp3
Pre-gap length : 00:02:00
Track gain : 2.41 dB
Peak : 0.648682
CRC32 hash (test run) : C5EB9B49
CRC32 hash : C5EB9B49
CRC32 hash (skip zero) : E99C0AD8
AccurateRip v1 signature : 6521531A
AccurateRip v2 signature : F8455403
->Accurately ripped (v2, confidence 1/1)
Statistics
Read error : 0
Jitter error (maybe fixed) : 0
Retry sector count : 0
Damaged sector count : 0
Track 02
Filename : /My/Music/_Grabbed/Manfred Schulze Bläser Quintett - 2010 - Choral-Konzert [FLAC]/02 - B-A-C-H.flac
/My/Music/_Grabbed/Manfred Schulze Bläser Quintett - 2010 - Choral-Konzert [MP3 320]/02 - B-A-C-H.mp3
/My/Music/_Grabbed/Manfred Schulze Bläser Quintett - 2010 - Choral-Konzert [MP3 V0]/02 - B-A-C-H.mp3
Track gain : -1.50 dB
Peak : 0.999969
CRC32 hash (test run) : 56AA2992
CRC32 hash : 56AA2992
CRC32 hash (skip zero) : 24CF6BD2
AccurateRip v1 signature : 9B4A9342
AccurateRip v2 signature : 59994018
->Accurately ripped (v2, confidence 1/1)
Statistics
Read error : 0
Jitter error (maybe fixed) : 0
Retry sector count : 0
Damaged sector count : 0
Track 03
Filename : /My/Music/_Grabbed/Manfred Schulze Bläser Quintett - 2010 - Choral-Konzert [FLAC]/03 - Choral-Konzert.flac
/My/Music/_Grabbed/Manfred Schulze Bläser Quintett - 2010 - Choral-Konzert [MP3 320]/03 - Choral-Konzert.mp3
/My/Music/_Grabbed/Manfred Schulze Bläser Quintett - 2010 - Choral-Konzert [MP3 V0]/03 - Choral-Konzert.mp3
Track gain : -0.12 dB
Peak : 0.879761
CRC32 hash (test run) : 176BAF74
CRC32 hash : 176BAF74
CRC32 hash (skip zero) : E45552B6
AccurateRip v1 signature : DFDFA9C1
AccurateRip v2 signature : 3D0747E4
->Accurately ripped (v2, confidence 1/1)
Statistics
Read error : 0
Jitter error (maybe fixed) : 0
Retry sector count : 0
Damaged sector count : 0
Track 04
Filename : /My/Music/_Grabbed/Manfred Schulze Bläser Quintett - 2010 - Choral-Konzert [FLAC]/04 - Dresden Suite (4. Satz).flac
/My/Music/_Grabbed/Manfred Schulze Bläser Quintett - 2010 - Choral-Konzert [MP3 320]/04 - Dresden Suite (4. Satz).mp3
/My/Music/_Grabbed/Manfred Schulze Bläser Quintett - 2010 - Choral-Konzert [MP3 V0]/04 - Dresden Suite (4. Satz).mp3
Track gain : -2.06 dB
Peak : 0.948822
CRC32 hash (test run) : 179E06D2
CRC32 hash : 179E06D2
CRC32 hash (skip zero) : 566FA019
AccurateRip v1 signature : D4163821
AccurateRip v2 signature : B8091AD5
->Accurately ripped (v2, confidence 1/1)
Statistics
Read error : 0
Jitter error (maybe fixed) : 0
Retry sector count : 0
Damaged sector count : 0
No errors occurred
End of status report
 
Содержание индексной карты (.CUE)
TITLE "Choral-Konzert"
PERFORMER "Manfred Schulze Bläser Quintett"
REM GENRE "Free Jazz"
REM DATE "2010"
REM DISCID 2D0EB804
REM REPLAYGAIN_ALBUM_GAIN -0.59 dB
REM REPLAYGAIN_ALBUM_PEAK 0.999969
FILE "01 - Bounce Nr. 2.flac" WAVE
TRACK 01 AUDIO
TITLE "Bounce Nr. 2"
FLAGS DCP
REM COMMENT "Recorded on 5 and 8 November 1998 during the Total Music Meeting at Podewil, Berlin"
REM REPLAYGAIN_TRACK_GAIN 2.41 dB
REM REPLAYGAIN_TRACK_PEAK 0.648682
INDEX 01 00:00:00
FILE "02 - B-A-C-H.flac" WAVE
TRACK 02 AUDIO
TITLE "B-A-C-H"
FLAGS DCP
REM COMMENT "Recorded on 5 and 8 November 1998 during the Total Music Meeting at Podewil, Berlin"
REM REPLAYGAIN_TRACK_GAIN -1.50 dB
REM REPLAYGAIN_TRACK_PEAK 0.999969
INDEX 01 00:00:00
FILE "03 - Choral-Konzert.flac" WAVE
TRACK 03 AUDIO
TITLE "Choral-Konzert"
FLAGS DCP
REM COMMENT "Recorded on 5 and 8 November 1998 during the Total Music Meeting at Podewil, Berlin"
REM REPLAYGAIN_TRACK_GAIN -0.12 dB
REM REPLAYGAIN_TRACK_PEAK 0.879761
INDEX 01 00:00:00
FILE "04 - Dresden Suite (4. Satz).flac" WAVE
TRACK 04 AUDIO
TITLE "Dresden Suite (4. Satz)"
FLAGS DCP
REM COMMENT "Recorded on 5 and 8 November 1998 during the Total Music Meeting at Podewil, Berlin"
REM REPLAYGAIN_TRACK_GAIN -2.06 dB
REM REPLAYGAIN_TRACK_PEAK 0.948822
INDEX 01 00:00:00
 
Лог проверки качества
d:\>d:\aucdtect -d/-m0 d:\zzz\*.wav
auCDtect: CD records authenticity detector, version 0.8.2
Copyright (c) 2004 Oleg Berngardt. All rights reserved.
Copyright (c) 2004 Alexander Djourik. All rights reserved.
------------------------------------------------------------
Processing file: [01. Bounce Nr. 2.wav]
------------------------------------------------------------
This track looks like CDDA with probability 100%
------------------------------------------------------------
Processing file: [02. B-A-C-H.wav]
------------------------------------------------------------
This track looks like CDDA with probability 100%
------------------------------------------------------------
Processing file: [03. Choral-Konzert.wav]
------------------------------------------------------------
This track looks like CDDA with probability 100%
------------------------------------------------------------
Processing file: [04. Dresden Suite (4. Satz).wav]
------------------------------------------------------------
This track looks like CDDA with probability 100%
------------------------------------------------------------
Final Conclusion:
------------------------------------------------------------
These tracks looks like CDDA with probability 100%
 
Состав
Alto Saxophone – Manfred Hering
Baritone Saxophone – Gert Anklam
Tenor Saxophone – Heiner Reinhardt
Trombone – Johannes Bauer
Trumpet – Paul Schwingenschlogl
Recorded on 5 and 8 November 1998 during the Total Music Meeting at Podewil, Berlin
01:55
361
Нет комментариев. Ваш будет первым!