Поиск

(Avant-Garde Jazz, Free Improvisation) [CD] Pharoah Sanders - Thembi {1971} - 1987, FLAC (tracks+.cue), lossless

(Avant-Garde Jazz, Free Improvisation) [CD] Pharoah Sanders - Thembi {1971} - 1987, FLAC (tracks+.cue), lossless
Треклист:
♦ Pharoah Sanders - Thembi {1971} ♦
Жанр: Avant-Garde Jazz, Free Improvisation
Носитель: CD
Страна-производитель диска: USA
Год издания: 1987
Издатель (лейбл): MCA Records / Impulse!
Номер по каталогу: MCAD-5860
Аудиокодек: FLAC (*.flac)
Тип рипа: tracks+.cue
Битрейт аудио: lossless
Продолжительность: 00:42:08
Источник (релизер): Рип с диска.
Наличие сканов в содержимом раздачи: да
Треклист:
01. Astral Traveling [05:50]
02. Red, Black & Green [08:57]
03. Thembi [07:10]
04. Love [05:12]
05. Morning Prayer [09:11]
06. Bailophone Dance [05:45]
 
Лог создания рипа
Exact Audio Copy V1.0 beta 3 from 29. August 2011
EAC extraction logfile from 3. January 2014, 19:49
Pharoah Sanders / Thembi
Used drive : Optiarc DVD RW AD-5200A Adapter: 0 ID: 0
Read mode : Secure
Utilize accurate stream : Yes
Defeat audio cache : Yes
Make use of C2 pointers : No
Read offset correction : 48
Overread into Lead-In and Lead-Out : No
Fill up missing offset samples with silence : Yes
Delete leading and trailing silent blocks : No
Null samples used in CRC calculations : Yes
Used interface : Native Win32 interface for Win NT & 2000
Gap handling : Appended to previous track
Used output format : User Defined Encoder
Selected bitrate : 128 kBit/s
Quality : High
Add ID3 tag : No
Command line compressor : C:\Program Files\Exact Audio Copy\Flac\flac.exe
Additional command line options : -V -8 -T "Genre=%genre%" -T "Artist=%artist%" -T "Title=%title%" -T "Album=%albumtitle%" -T "Date=%year%" -T "Tracknumber=%tracknr%" -T "Comment=%comment%" %source%
TOC of the extracted CD
Track | Start | Length | Start sector | End sector
---------------------------------------------------------
1 | 0:00.00 | 5:50.55 | 0 | 26304
2 | 5:50.55 | 8:57.15 | 26305 | 66594
3 | 14:47.70 | 7:10.15 | 66595 | 98859
4 | 21:58.10 | 5:12.70 | 98860 | 122329
5 | 27:11.05 | 9:11.60 | 122330 | 163714
6 | 36:22.65 | 5:45.68 | 163715 | 189657
Track 1
Filename F:\1987.Pharoah Sanders - Thembi\01. Astral Traveling.wav
Pre-gap length 0:00:02.00
Peak level 75.1 %
Extraction speed 2.0 X
Track quality 99.9 %
Test CRC 8552164E
Copy CRC 8552164E
Accurately ripped (confidence 3) [59F29E61] (AR v2)
Copy OK
Track 2
Filename F:\1987.Pharoah Sanders - Thembi\02. Red, Black & Green.wav
Pre-gap length 0:00:01.17
Peak level 70.5 %
Extraction speed 2.9 X
Track quality 99.9 %
Test CRC DFA9723C
Copy CRC DFA9723C
Accurately ripped (confidence 3) [13971A5C] (AR v2)
Copy OK
Track 3
Filename F:\1987.Pharoah Sanders - Thembi\03. Thembi.wav
Peak level 90.5 %
Extraction speed 3.4 X
Track quality 100.0 %
Test CRC 45B344FE
Copy CRC 45B344FE
Accurately ripped (confidence 3) [9945518C] (AR v2)
Copy OK
Track 4
Filename F:\1987.Pharoah Sanders - Thembi\04. Love.wav
Pre-gap length 0:00:05.02
Peak level 48.7 %
Extraction speed 3.5 X
Track quality 100.0 %
Test CRC 78088164
Copy CRC 78088164
Accurately ripped (confidence 3) [EA3D5E6B] (AR v2)
Copy OK
Track 5
Filename F:\1987.Pharoah Sanders - Thembi\05. Morning Prayer.wav
Peak level 86.5 %
Extraction speed 3.8 X
Track quality 100.0 %
Test CRC FED0798E
Copy CRC FED0798E
Accurately ripped (confidence 3) [FFEBA5F1] (AR v2)
Copy OK
Track 6
Filename F:\1987.Pharoah Sanders - Thembi\06. Bailophone Dance.wav
Peak level 93.9 %
Extraction speed 3.3 X
Track quality 99.9 %
Test CRC 2A6CE641
Copy CRC 2A6CE641
Accurately ripped (confidence 3) [3784C8C0] (AR v2)
Copy OK
All tracks accurately ripped
No errors occurred
End of status report
==== Log checksum 9E1F5BAD78F3E5F16CE81A5166817FF5F3C70BAB1A792FABEF336DC609EC2E52 ====
 
Содержание индексной карты (.CUE)
REM GENRE Jazz
REM DATE 1987
REM DISCID 4709E006
REM COMMENT "ExactAudioCopy v1.0b3"
PERFORMER "Pharoah Sanders"
TITLE "Thembi"
FILE "01. Astral Traveling.wav" WAVE
TRACK 01 AUDIO
TITLE "Astral Traveling"
PERFORMER "Pharoah Sanders"
INDEX 01 00:00:00
TRACK 02 AUDIO
TITLE "Red, Black & Green"
PERFORMER "Pharoah Sanders"
INDEX 00 05:49:38
FILE "02. Red, Black & Green.wav" WAVE
INDEX 01 00:00:00
FILE "03. Thembi.wav" WAVE
TRACK 03 AUDIO
TITLE "Thembi"
PERFORMER "Pharoah Sanders"
INDEX 01 00:00:00
TRACK 04 AUDIO
TITLE "Love"
PERFORMER "Pharoah Sanders"
INDEX 00 07:05:13
FILE "04. Love.wav" WAVE
INDEX 01 00:00:00
FILE "05. Morning Prayer.wav" WAVE
TRACK 05 AUDIO
TITLE "Morning Prayer"
PERFORMER "Pharoah Sanders"
INDEX 01 00:00:00
FILE "06. Bailophone Dance.wav" WAVE
TRACK 06 AUDIO
TITLE "Bailophone Dance"
PERFORMER "Pharoah Sanders"
INDEX 01 00:00:00
 
Состав
#1-4 :
Pharoah Sanders (tenor sax, soprano sax, bells, percussion)
Michael White (violin, percussion)
Lonnie Liston Smith (piano, electric piano, claves, percussion)
Cecil McBee (bass, finger cymbal, percussion)
Clifford Jarvis (drums, maracas, bells, percussion)
James Jordan (ring cymbal)
# 5-6 :
Pharoah Sanders (tenor sax, alto flute, koto, brass bells, balaphone, maracas, cow horn, fifes)
Lonnie Liston Smith (piano, ring cymbal, shouts, balaphone)
Cecil McBee (bass, bird effects)
Roy Haynes (drums)
Nat Bettis, Chief Bey, Majid Shabazz, Anthony Wiles (African percussion)
По всем вопросам пишите личное сообщение пользователю M0p94ok.
21:57
136
Нет комментариев. Ваш будет первым!