Поиск

(Avant-Garde Jazz, Free Improvisation) [CD] Matthew Shipp - Good and Evil Sessions - 2003, FLAC (tracks+.cue), lossless

(Avant-Garde Jazz, Free Improvisation) [CD] Matthew Shipp - Good and Evil Sessions - 2003, FLAC (tracks+.cue), lossless
♦ Matthew Shipp - Good and Evil Sessions ♦
Жанр: Avant-Garde Jazz, Free Improvisation
Носитель: CD
Страна-производитель диска: Russia
Год издания: 2003
Аудиокодек: FLAC (*.flac)
Тип рипа: tracks+.cue
Битрейт аудио: lossless
Продолжительность: 00:43:18
Источник (релизер): Рип с диска.
Наличие сканов в содержимом раздачи: да
Треклист:
01. Brainwash [06:35]
02. Then Again [04:40]
03. The Stakeout [04:49]
04. Close Call [04:18]
05. The Hideout [04:39]
06. On The Run [04:42]
07. Roll It Back [04:03]
08. Change of Plans [05:09]
09. Sweetbitter [04:21]
 
Лог создания рипа
Exact Audio Copy V1.0 beta 3 from 29. August 2011
EAC extraction logfile from 25. January 2014, 20:19
Matthew Shipp / GoodandEvil Sesions
Used drive : ATAPI iHAS124 D Adapter: 1 ID: 0
Read mode : Secure
Utilize accurate stream : Yes
Defeat audio cache : Yes
Make use of C2 pointers : No
Read offset correction : 6
Overread into Lead-In and Lead-Out : No
Fill up missing offset samples with silence : Yes
Delete leading and trailing silent blocks : No
Null samples used in CRC calculations : Yes
Used interface : Native Win32 interface for Win NT & 2000
Gap handling : Appended to previous track
Used output format : User Defined Encoder
Selected bitrate : 128 kBit/s
Quality : High
Add ID3 tag : No
Command line compressor : C:\Program Files (x86)\Exact Audio Copy\Flac\flac.exe
Additional command line options : -V -8 -T "Genre=%genre%" -T "Artist=%artist%" -T "Title=%title%" -T "Album=%albumtitle%" -T "Date=%year%" -T "Tracknumber=%tracknr%" -T "Comment=%comment%" %source%
TOC of the extracted CD
Track | Start | Length | Start sector | End sector
---------------------------------------------------------
1 | 0:00.00 | 6:35.10 | 0 | 29634
2 | 6:35.10 | 4:40.10 | 29635 | 50644
3 | 11:15.20 | 4:49.00 | 50645 | 72319
4 | 16:04.20 | 4:18.23 | 72320 | 91692
5 | 20:22.43 | 4:39.49 | 91693 | 112666
6 | 25:02.17 | 4:42.34 | 112667 | 133850
7 | 29:44.51 | 4:03.58 | 133851 | 152133
8 | 33:48.34 | 5:09.13 | 152134 | 175321
9 | 38:57.47 | 4:21.09 | 175322 | 194905
Track 1
Filename D:\2003.Matthew Shipp - Good and Evil Sessions\01. Brainwash.wav
Pre-gap length 0:00:02.00
Peak level 98.8 %
Extraction speed 5.7 X
Track quality 100.0 %
Test CRC 66116675
Copy CRC 66116675
Cannot be verified as accurate (confidence 2) [69C0110F], AccurateRip returned [A0B60315] (AR v2)
Copy OK
Track 2
Filename D:\2003.Matthew Shipp - Good and Evil Sessions\02. Then Again.wav
Peak level 98.8 %
Extraction speed 6.3 X
Track quality 100.0 %
Test CRC 9E42548F
Copy CRC 9E42548F
Cannot be verified as accurate (confidence 2) [5740D418], AccurateRip returned [1F2853AA] (AR v2)
Copy OK
Track 3
Filename D:\2003.Matthew Shipp - Good and Evil Sessions\03. The Stakeout.wav
Peak level 98.8 %
Extraction speed 6.9 X
Track quality 100.0 %
Test CRC 4B0664B9
Copy CRC 4B0664B9
Cannot be verified as accurate (confidence 2) [8FC3C3C3], AccurateRip returned [4B313165] (AR v2)
Copy OK
Track 4
Filename D:\2003.Matthew Shipp - Good and Evil Sessions\04. Close Call.wav
Peak level 98.8 %
Extraction speed 6.6 X
Track quality 99.9 %
Test CRC F6F214B0
Copy CRC F6F214B0
Cannot be verified as accurate (confidence 2) [1605260D], AccurateRip returned [A1CA988B] (AR v2)
Copy OK
Track 5
Filename D:\2003.Matthew Shipp - Good and Evil Sessions\05. The Hideout.wav
Peak level 98.8 %
Extraction speed 7.9 X
Track quality 100.0 %
Test CRC E644A9C3
Copy CRC E644A9C3
Cannot be verified as accurate (confidence 2) [8D8434AF], AccurateRip returned [5AF2D1C5] (AR v2)
Copy OK
Track 6
Filename D:\2003.Matthew Shipp - Good and Evil Sessions\06. On The Run.wav
Peak level 98.8 %
Extraction speed 8.4 X
Track quality 100.0 %
Test CRC 9C3C074A
Copy CRC 9C3C074A
Cannot be verified as accurate (confidence 2) [F0EBB9A1], AccurateRip returned [78728B07] (AR v2)
Copy OK
Track 7
Filename D:\2003.Matthew Shipp - Good and Evil Sessions\07. Roll It Back.wav
Peak level 98.8 %
Extraction speed 8.6 X
Track quality 100.0 %
Test CRC E3A215CF
Copy CRC E3A215CF
Cannot be verified as accurate (confidence 2) [B41EF0F9], AccurateRip returned [E08FC5A2] (AR v2)
Copy OK
Track 8
Filename D:\2003.Matthew Shipp - Good and Evil Sessions\08. Change of Plans.wav
Peak level 98.8 %
Extraction speed 9.3 X
Track quality 100.0 %
Test CRC 8076AB18
Copy CRC 8076AB18
Cannot be verified as accurate (confidence 2) [BC1FD36B], AccurateRip returned [32F464BD] (AR v2)
Copy OK
Track 9
Filename D:\2003.Matthew Shipp - Good and Evil Sessions\09. Sweetbitter.wav
Peak level 98.8 %
Extraction speed 9.5 X
Track quality 100.0 %
Test CRC 7293D986
Copy CRC 7293D986
Cannot be verified as accurate (confidence 3) [5DEB9DDB], AccurateRip returned [5CAC8223] (AR v2)
Copy OK
No tracks could be verified as accurate
You may have a different pressing from the one(s) in the database
No errors occurred
End of status report
==== Log checksum E5B5A3D209D9723157BA1B26612F2713003DFCEA08A3B77EFCBD03DA2BA8291A ====
 
Содержание индексной карты (.CUE)
REM GENRE Jazz
REM DATE 2003
REM DISCID 7D0A2609
REM COMMENT "ExactAudioCopy v1.0b3"
PERFORMER "Matthew Shipp"
TITLE "GoodandEvil Sesions "
FILE "01. Brainwash.wav" WAVE
TRACK 01 AUDIO
TITLE "Brainwash"
PERFORMER "Matthew Shipp"
INDEX 01 00:00:00
FILE "02. Then Again.wav" WAVE
TRACK 02 AUDIO
TITLE "Then Again"
PERFORMER "Matthew Shipp"
INDEX 01 00:00:00
FILE "03. The Stakeout.wav" WAVE
TRACK 03 AUDIO
TITLE "The Stakeout"
PERFORMER "Matthew Shipp"
INDEX 01 00:00:00
FILE "04. Close Call.wav" WAVE
TRACK 04 AUDIO
TITLE "Close Call"
PERFORMER "Matthew Shipp"
INDEX 01 00:00:00
FILE "05. The Hideout.wav" WAVE
TRACK 05 AUDIO
TITLE "The Hideout"
PERFORMER "Matthew Shipp"
INDEX 01 00:00:00
FILE "06. On The Run.wav" WAVE
TRACK 06 AUDIO
TITLE "On The Run"
PERFORMER "Matthew Shipp"
INDEX 01 00:00:00
FILE "07. Roll It Back.wav" WAVE
TRACK 07 AUDIO
TITLE "Roll It Back"
PERFORMER "Matthew Shipp"
INDEX 01 00:00:00
FILE "08. Change of Plans.wav" WAVE
TRACK 08 AUDIO
TITLE "Change of Plans"
PERFORMER "Matthew Shipp"
INDEX 01 00:00:00
FILE "09. Sweetbitter.wav" WAVE
TRACK 09 AUDIO
TITLE "Sweetbitter"
PERFORMER "Matthew Shipp"
INDEX 01 00:00:00
 
Состав
Personnel: Roy Campbell (trumpet); Alex Lodico, Josh Roseman (trombone); Matthew Shipp (piano); Chris Kelly (guitar, percussion); Danny Blume (guitar); William Parker (bass); Miso (scratches).
22:54
510
Нет комментариев. Ваш будет первым!