Вы используете незарегистрированную версию компонента "Вкладки"!

Поиск

(Avant-Garde Jazz, Contemporary Jazz, pfMENTUM) [CD] Michael Vlatkovich Ensemblio (w/ Jeff Kaiser, Brian Walsh, Tom McNalley, Wayne Peet) - An Autobiography Of A Pronoun - 2012, FLAC (tracks+.cue), lossless

(Avant-Garde Jazz, Contemporary Jazz, pfMENTUM) [CD] Michael Vlatkovich Ensemblio (w/ Jeff Kaiser, Brian Walsh, Tom McNalley, Wayne Peet) - An Autobiography Of A Pronoun - 2012, FLAC (tracks+.cue), lossless
Треклист:
Michael Vlatkovich Ensemblio / An Autobiography Of A Pronoun
Жанр: Avant-Garde Jazz, Contemporary Jazz, pfMENTUM
Носитель: CD
Страна-производитель диска: US
Год издания: 2012
Издатель (лейбл): pfMENTUM
Номер по каталогу: CD067
Страна: US
Аудиокодек: FLAC (*.flac)
Тип рипа: tracks+.cue
Битрейт аудио: lossless
Продолжительность: 49:47
Источник (релизер): свой фирменный диск
Наличие сканов в содержимом раздачи:
Треклист:
1. Leg Belly Neon Kill Climb Unaware Pride 9:53
2. More Grey Than White / More Old Than Young / Less Forgotten / More Remembered / Little Time / Big Plans 7:41
3. JMZ 1 4:06
4. JMZ 2 5:36
5. JMZ 3 2:03
6. Little Rubber Arrow And Elephant Sandwich 4:07
7. Explain Again Why I Can't Drive Faster Than The Car In Front Of Me 6:07
8. Queen Dynamo 5:28
9. Memories Hold My Hand 4:47
 
Лог создания рипа
Exact Audio Copy V1.0 beta 3 from 29. August 2011
EAC extraction logfile from 13. January 2014, 20:19
Michael Vlatkovich Ensemblio / An Autobiography Of A Pronoun
Used drive : PIONEER DVD-RW DVR-115D Adapter: 0 ID: 0
Read mode : Secure
Utilize accurate stream : Yes
Defeat audio cache : Yes
Make use of C2 pointers : No
Read offset correction : 48
Overread into Lead-In and Lead-Out : No
Fill up missing offset samples with silence : Yes
Delete leading and trailing silent blocks : No
Null samples used in CRC calculations : Yes
Used interface : Installed external ASPI interface
Gap handling : Appended to previous track
Used output format : User Defined Encoder
Selected bitrate : 896 kBit/s
Quality : High
Add ID3 tag : No
Command line compressor : C:\Program Files\Exact Audio Copy\FLAC\FLAC.EXE
Additional command line options : -6 -V -T "ARTIST=%artist%" -T "TITLE=%title%" -T "ALBUM=%albumtitle%" -T "DATE=%year%" -T "TRACKNUMBER=%tracknr%" -T "GENRE=%genre%" -T "COMMENT=%comment%" -T "BAND=%albuminterpret%" -T "COMPOSER=%composer%" %haslyrics%--tag-from-file=LYRICS="%lyricsfile%"%haslyrics% -T "DISCNUMBER=%cdnumber%" -T "TOTALDISCS=%totalcds%" -T "TOTALTRACKS=%numtracks%" %hascover%--picture="%coverfile%"%hascover% %source% -o %dest%
TOC of the extracted CD
Track | Start | Length | Start sector | End sector
---------------------------------------------------------
1 | 0:00.00 | 9:52.44 | 0 | 44443
2 | 9:52.44 | 7:40.47 | 44444 | 78990
3 | 17:33.16 | 4:06.37 | 78991 | 97477
4 | 21:39.53 | 5:35.56 | 97478 | 122658
5 | 27:15.34 | 2:02.53 | 122659 | 131861
6 | 29:18.12 | 4:07.23 | 131862 | 150409
7 | 33:25.35 | 6:06.65 | 150410 | 177924
8 | 39:32.25 | 5:28.12 | 177925 | 202536
9 | 45:00.37 | 4:47.01 | 202537 | 224062
Track 1
Filename D:\zzz\01 - Leg Belly Neon Kill Climb Unaware Pride.wav
Pre-gap length 0:00:02.00
Peak level 96.6 %
Extraction speed 4.7 X
Track quality 99.9 %
Test CRC 22464B07
Copy CRC 22464B07
Track not present in AccurateRip database
Copy OK
Track 2
Filename D:\zzz\02 - More Grey Than White , More Old Than Young , Less Forgotten , More Remembered , Little Time , Big Plans.wav
Pre-gap length 0:00:02.00
Peak level 96.6 %
Extraction speed 5.8 X
Track quality 100.0 %
Test CRC 4DD01158
Copy CRC 4DD01158
Track not present in AccurateRip database
Copy OK
Track 3
Filename D:\zzz\03 - JMZ 1.wav
Pre-gap length 0:00:02.00
Peak level 74.0 %
Extraction speed 5.9 X
Track quality 100.0 %
Test CRC C60DDEEF
Copy CRC C60DDEEF
Track not present in AccurateRip database
Copy OK
Track 4
Filename D:\zzz\04 - JMZ 2.wav
Pre-gap length 0:00:02.00
Peak level 96.6 %
Extraction speed 6.5 X
Track quality 100.0 %
Test CRC 0FB79A40
Copy CRC 0FB79A40
Track not present in AccurateRip database
Copy OK
Track 5
Filename D:\zzz\05 - JMZ 3.wav
Pre-gap length 0:00:02.00
Peak level 96.6 %
Extraction speed 5.7 X
Track quality 100.0 %
Test CRC 48FD49E5
Copy CRC 48FD49E5
Track not present in AccurateRip database
Copy OK
Track 6
Filename D:\zzz\06 - Little Rubber Arrow And Elephant Sandwich.wav
Pre-gap length 0:00:02.00
Peak level 96.6 %
Extraction speed 6.0 X
Track quality 99.9 %
Test CRC 244EA657
Copy CRC 244EA657
Track not present in AccurateRip database
Copy OK
Track 7
Filename D:\zzz\07 - Explain Again Why I Can't Drive Faster Than The Car In Front Of Me.wav
Pre-gap length 0:00:02.00
Peak level 96.6 %
Extraction speed 6.7 X
Track quality 99.9 %
Test CRC 9ADBA288
Copy CRC 9ADBA288
Track not present in AccurateRip database
Copy OK
Track 8
Filename D:\zzz\08 - Queen Dynamo.wav
Pre-gap length 0:00:02.00
Peak level 96.6 %
Extraction speed 7.6 X
Track quality 100.0 %
Test CRC F555BFBF
Copy CRC F555BFBF
Track not present in AccurateRip database
Copy OK
Track 9
Filename D:\zzz\09 - Memories Hold My Hand.wav
Pre-gap length 0:00:02.00
Peak level 68.1 %
Extraction speed 7.7 X
Track quality 100.0 %
Test CRC A1A11C1B
Copy CRC A1A11C1B
Track not present in AccurateRip database
Copy OK
None of the tracks are present in the AccurateRip database
No errors occurred
End of status report
==== Log checksum CB8AFCC70BD8102B9F9A312705474A98B32AC351670AA40AB26F8A0715B4FA21 ====
 
Содержание индексной карты (.CUE)
REM GENRE "Free Jazz"
REM DATE 2012
REM DISCID 670BAB09
REM COMMENT "ExactAudioCopy v1.0b3"
PERFORMER "Michael Vlatkovich Ensemblio"
TITLE "An Autobiography Of A Pronoun"
FILE "01 - Leg Belly Neon Kill Climb Unaware Pride.wav" WAVE
TRACK 01 AUDIO
TITLE "Leg Belly Neon Kill Climb Unaware Pride"
PERFORMER "Michael Vlatkovich Ensemblio"
FLAGS DCP
INDEX 01 00:00:00
TRACK 02 AUDIO
TITLE "More Grey Than White / More Old Than Young / Less Forgotten / More Remembered..."
PERFORMER "Michael Vlatkovich Ensemblio"
FLAGS DCP
INDEX 00 09:50:44
FILE "02 - More Grey Than White , More Old Than Young , Less Forgotten , More Remembered , Little Time , Big Plans.wav" WAVE
INDEX 01 00:00:00
TRACK 03 AUDIO
TITLE "JMZ 1"
PERFORMER "Michael Vlatkovich Ensemblio"
FLAGS DCP
INDEX 00 07:38:47
FILE "03 - JMZ 1.wav" WAVE
INDEX 01 00:00:00
TRACK 04 AUDIO
TITLE "JMZ 2"
PERFORMER "Michael Vlatkovich Ensemblio"
FLAGS DCP
INDEX 00 04:04:37
FILE "04 - JMZ 2.wav" WAVE
INDEX 01 00:00:00
TRACK 05 AUDIO
TITLE "JMZ 3"
PERFORMER "Michael Vlatkovich Ensemblio"
FLAGS DCP
INDEX 00 05:33:56
FILE "05 - JMZ 3.wav" WAVE
INDEX 01 00:00:00
TRACK 06 AUDIO
TITLE "Little Rubber Arrow And Elephant Sandwich"
PERFORMER "Michael Vlatkovich Ensemblio"
FLAGS DCP
INDEX 00 02:00:53
FILE "06 - Little Rubber Arrow And Elephant Sandwich.wav" WAVE
INDEX 01 00:00:00
TRACK 07 AUDIO
TITLE "Explain Again Why I Can't Drive Faster Than The Car In Front Of Me"
PERFORMER "Michael Vlatkovich Ensemblio"
FLAGS DCP
INDEX 00 04:05:23
FILE "07 - Explain Again Why I Can't Drive Faster Than The Car In Front Of Me.wav" WAVE
INDEX 01 00:00:00
TRACK 08 AUDIO
TITLE "Queen Dynamo"
PERFORMER "Michael Vlatkovich Ensemblio"
FLAGS DCP
INDEX 00 06:04:65
FILE "08 - Queen Dynamo.wav" WAVE
INDEX 01 00:00:00
TRACK 09 AUDIO
TITLE "Memories Hold My Hand"
PERFORMER "Michael Vlatkovich Ensemblio"
FLAGS DCP
INDEX 00 05:26:12
FILE "09 - Memories Hold My Hand.wav" WAVE
INDEX 01 00:00:00
 
Лог проверки качества
d:\>d:\aucdtect -d/-m0 d:\zzz\*.wav
auCDtect: CD records authenticity detector, version 0.8.2
Copyright (c) 2004 Oleg Berngardt. All rights reserved.
Copyright (c) 2004 Alexander Djourik. All rights reserved.
------------------------------------------------------------
Processing file: [01. Leg Belly Neon Kill Climb Unaware Pride.wav]
------------------------------------------------------------
This track looks like CDDA with probability 100%
------------------------------------------------------------
Processing file: [02. More Grey Than White - More Old Than Young - Less Forgotten - More Remembered - Little Time - Big Plans.wav]
------------------------------------------------------------
This track looks like CDDA with probability 100%
------------------------------------------------------------
Processing file: [03. JMZ 1.wav]
------------------------------------------------------------
This track looks like CDDA with probability 100%
------------------------------------------------------------
Processing file: [04. JMZ 2.wav]
------------------------------------------------------------
This track looks like CDDA with probability 100%
------------------------------------------------------------
Processing file: [05. JMZ 3.wav]
------------------------------------------------------------
This track looks like CDDA with probability 100%
------------------------------------------------------------
Processing file: [06. Little Rubber Arrow And Elephant Sandwich.wav]
------------------------------------------------------------
This track looks like CDDA with probability 100%
------------------------------------------------------------
Processing file: [07. Explain Again Why I Can't Drive Faster Than The Car In Front Of Me.wav]
------------------------------------------------------------
This track looks like CDDA with probability 100%
------------------------------------------------------------
Processing file: [08. Queen Dynamo.wav]
------------------------------------------------------------
This track looks like CDDA with probability 100%
------------------------------------------------------------
Processing file: [09. Memories Hold My Hand.wav]
------------------------------------------------------------
This track looks like CDDA with probability 92%
------------------------------------------------------------
Final Conclusion:
------------------------------------------------------------
These tracks looks like CDDA with probability 100%
Доп. информация:
 
Album Info & Lucid Culture Review
All music composed and arranged: M. Vlatkovich
Recorded, edited, mixed, mastered at Killzone Studio: Wayne Peet
Cover art: M. Vlatkovich
Photo: Tom Woodbury
Graphic design: W. Roper
Trombonist Michael Vlatkovich’s Ensemblio has an intriguingly original album, Autobiography of a Pronoun, out now: the concept is improvisational big band jazz. This isn’t the waves of tunefulness followed by controlled chaos that Butch Morris champions, nor is it slowly shifting Greg Tate-style long-tone improvisation. What fuels this is a good sense of humor and artful orchestration: there are times when the whole ten-piece ensemble is cooking, but more often than not it’s a series of subgroups exploring a particular idea, so when the entire band gets in on it, the upward dynamics pack more of a punch. Most of this music is defiantly atonal, alluding to but seldom hitting a catchy hook head-on, the sixth track’s hypnotically syncopated Ethiopiques being the most memorable melody here in the conventional sense of the word. The presence of both Harry Scorzo’s violin and Jonathan Golove’s cello along with Anders Swanson’s frequently bowed bass add sonics that range from austere to occasionally lush and sweeping. It pretty much goes without saying that those who need a catchy tune to sing along to, or a steady beat to follow, will need to look elsewhere. But for jazz fans with an ear for the unconventional, this can be as much fun as it obviously was for the band to record.
Sample song title: Leg Belly Neon Kill Climb Unaware Pride, the ten-minute opening track. Surrealism reigns, from the pensive third-stream string ensemble introduction, a clave theme with vivid murky/airy contrasts between violin and ambience behind it, wry microtonalisms from Vlatkovich and a tasty Twin Peaks-ian interlude with legato piano leading spacious bass accents. It ends on an ominously agitated note.
The second track is more overtly improvisational, like early ELO on acid, anchored by drummer Michael Burdon’s funky shuffle, with tense strings-versus-horns contrasts, a free interlude that weaves from comedic to apprehensive and a lively, dancing bass solo out. Like the first cut, it has a persistent sense of unease. A three-part suite titled JMZ follows: its first section a rather chilling, twilit conversation between the bass and Wayne Peet’s piano, the second a blues ballad in heavy disguise contrasting rumbling, tumbling rhythms with terse piano and trombone motifs and the final an unexpectedly comic, increasingly rhythmic interlude led by William Roper’s tuba.
A jaggedly swinging large-ensemble piece, the wry Explain Why I Can’t Drive Faster Than the Car in Front of Me builds tension right from the big, lush opening chart, through a jarringly dissonant trombone/violin passage, to Peet’s piano going agitatedly off the edge into biting bop. Brian Walsh’s clarinet holds the funky Queen Dynamo together as the violin swirls and dips acidically before passing off to Jeff Kaiser’s muted trumpet and the trombone. The final piece, Memories Hold My Hand, is a sad, stately, Russian-flavored baroque requiem driven by somber tuba/trombone harmonies over flickering percussion. Those are just the highlights: other elements that are no less interesting emerge with repeated listening. Kick back with this if you’re up for getting swept into what can be an intense, inspiring, entertaining ride.
 
Состав
Jeff Kaiser: trumpet
William Roper: tuba/euphonium/cimbasso
Michael Vlatkovich: trombone/percussion
Brian Walsh: clarinet
Harry Scorzo: violin
Jonathan Golove: cello
Tom McNalley: guitar
Wayne Peet: keyboard
Anders Swanson: bass
Mark Burdon: percussion
Ellington Peet: cymbal
Any questions -> support@pro-jazz.com. По всем вопросам пишите -> support@pro-jazz.com
22:54
163
Нет комментариев. Ваш будет первым!