Поиск

(Avant-Garde Jazz, Free Improvisation) [CD] Beatrix Ward-Fernandez (w/ Derek Saw & Charlie Collins) - Trio - 2008, FLAC (tracks+.cue), lossless

(Avant-Garde Jazz, Free Improvisation) [CD] Beatrix Ward-Fernandez (w/ Derek Saw & Charlie Collins) - Trio - 2008, FLAC (tracks+.cue), lossless
Треклист:
Beatrix Ward-Fernandez / Trio
Жанр: Avant-Garde Jazz, Free Improvisation
Носитель: CD
Страна-производитель диска: UK
Год издания: 2008
Издатель (лейбл): Discus Records
Номер по каталогу: Discus 32CD
Страна: UK
Аудиокодек: FLAC (*.flac)
Тип рипа: tracks+.cue
Битрейт аудио: lossless
Продолжительность: 64:22
Источник (релизер): свой фирменный диск
Наличие сканов в содержимом раздачи:
Треклист:
1. T In T 3:48
2. Threnody For Delia 3:55
3. Manoeuvres 4:25
4. Phase Four 3:46
5. Sixteen 3:57
6. Simurg 5:53
7. Lou And Bill 5:06
8. Pari Passu 3:24
9. Tone Time 5:35
10. The Silent Life 3:10
11. Hullabaloo 4:57
12. A Peculiar Lustre 6:39
13. Mirador 4:51
14. Orthodoxy 5:15
 
Лог создания рипа
Exact Audio Copy V1.0 beta 3 from 29. August 2011
EAC extraction logfile from 10. May 2014, 9:51
Beatrix Ward-Fernandez / Trio
Used drive : PIONEER DVD-RW DVR-115D Adapter: 0 ID: 0
Read mode : Secure
Utilize accurate stream : Yes
Defeat audio cache : Yes
Make use of C2 pointers : No
Read offset correction : 48
Overread into Lead-In and Lead-Out : No
Fill up missing offset samples with silence : Yes
Delete leading and trailing silent blocks : No
Null samples used in CRC calculations : Yes
Used interface : Installed external ASPI interface
Gap handling : Appended to previous track
Used output format : User Defined Encoder
Selected bitrate : 896 kBit/s
Quality : High
Add ID3 tag : No
Command line compressor : C:\Program Files\Exact Audio Copy\FLAC\FLAC.EXE
Additional command line options : -6 -V -T "ARTIST=%artist%" -T "TITLE=%title%" -T "ALBUM=%albumtitle%" -T "DATE=%year%" -T "TRACKNUMBER=%tracknr%" -T "GENRE=%genre%" -T "COMMENT=%comment%" -T "BAND=%albuminterpret%" -T "COMPOSER=%composer%" %haslyrics%--tag-from-file=LYRICS="%lyricsfile%"%haslyrics% -T "DISCNUMBER=%cdnumber%" -T "TOTALDISCS=%totalcds%" -T "TOTALTRACKS=%numtracks%" %hascover%--picture="%coverfile%"%hascover% %source% -o %dest%
TOC of the extracted CD
Track | Start | Length | Start sector | End sector
---------------------------------------------------------
1 | 0:00.00 | 3:46.38 | 0 | 16987
2 | 3:46.38 | 3:53.52 | 16988 | 34514
3 | 7:40.15 | 4:23.49 | 34515 | 54288
4 | 12:03.64 | 3:44.34 | 54289 | 71122
5 | 15:48.23 | 3:55.56 | 71123 | 88803
6 | 19:44.04 | 5:52.71 | 88804 | 115274
7 | 25:37.00 | 5:06.54 | 115275 | 138278
8 | 30:43.54 | 3:23.42 | 138279 | 153545
9 | 34:07.21 | 5:31.52 | 153546 | 178422
10 | 39:38.73 | 3:07.20 | 178423 | 192467
11 | 42:46.18 | 4:56.66 | 192468 | 214733
12 | 47:43.09 | 6:38.36 | 214734 | 244619
13 | 54:21.45 | 4:49.05 | 244620 | 266299
14 | 59:10.50 | 5:11.60 | 266300 | 289684
Track 1
Filename D:\zzz\01 - T In T.wav
Pre-gap length 0:00:02.00
Peak level 99.0 %
Extraction speed 4.2 X
Track quality 100.0 %
Test CRC BD9F5C5B
Copy CRC BD9F5C5B
Track not present in AccurateRip database
Copy OK
Track 2
Filename D:\zzz\02 - Threnody For Delia.wav
Peak level 93.7 %
Extraction speed 4.1 X
Track quality 99.9 %
Test CRC 76D22A60
Copy CRC 76D22A60
Track not present in AccurateRip database
Copy OK
Track 3
Filename D:\zzz\03 - Manoeuvres.wav
Peak level 99.9 %
Extraction speed 5.1 X
Track quality 100.0 %
Test CRC 4C443A4B
Copy CRC 4C443A4B
Track not present in AccurateRip database
Copy OK
Track 4
Filename D:\zzz\04 - Phase Four.wav
Peak level 99.3 %
Extraction speed 4.8 X
Track quality 99.9 %
Test CRC 8C2FE215
Copy CRC 8C2FE215
Track not present in AccurateRip database
Copy OK
Track 5
Filename D:\zzz\05 - Sixteen.wav
Peak level 97.8 %
Extraction speed 5.7 X
Track quality 100.0 %
Test CRC 6C7659F6
Copy CRC 6C7659F6
Track not present in AccurateRip database
Copy OK
Track 6
Filename D:\zzz\06 - Simurg.wav
Peak level 91.5 %
Extraction speed 6.4 X
Track quality 100.0 %
Test CRC 58F8528D
Copy CRC 58F8528D
Track not present in AccurateRip database
Copy OK
Track 7
Filename D:\zzz\07 - Lou And Bill.wav
Peak level 84.3 %
Extraction speed 6.1 X
Track quality 99.9 %
Test CRC 87855C1E
Copy CRC 87855C1E
Track not present in AccurateRip database
Copy OK
Track 8
Filename D:\zzz\08 - Pari Passu.wav
Peak level 98.8 %
Extraction speed 6.6 X
Track quality 100.0 %
Test CRC F0DC9EB7
Copy CRC F0DC9EB7
Track not present in AccurateRip database
Copy OK
Track 9
Filename D:\zzz\09 - Tone Time.wav
Peak level 98.7 %
Extraction speed 6.6 X
Track quality 99.9 %
Test CRC 74C47EDA
Copy CRC 74C47EDA
Track not present in AccurateRip database
Copy OK
Track 10
Filename D:\zzz\10 - The Silent Life.wav
Peak level 94.7 %
Extraction speed 6.9 X
Track quality 100.0 %
Test CRC DF697D6B
Copy CRC DF697D6B
Track not present in AccurateRip database
Copy OK
Track 11
Filename D:\zzz\11 - Hullabaloo.wav
Peak level 98.9 %
Extraction speed 7.7 X
Track quality 100.0 %
Test CRC 32C8880D
Copy CRC 32C8880D
Track not present in AccurateRip database
Copy OK
Track 12
Filename D:\zzz\12 - A Peculiar Lustre.wav
Peak level 99.9 %
Extraction speed 8.2 X
Track quality 100.0 %
Test CRC 2903AE92
Copy CRC 2903AE92
Track not present in AccurateRip database
Copy OK
Track 13
Filename D:\zzz\13 - Mirador.wav
Peak level 98.9 %
Extraction speed 8.2 X
Track quality 100.0 %
Test CRC 412139C8
Copy CRC 412139C8
Track not present in AccurateRip database
Copy OK
Track 14
Filename D:\zzz\14 - Orthodoxy.wav
Peak level 98.9 %
Extraction speed 8.5 X
Track quality 100.0 %
Test CRC F0CD5793
Copy CRC F0CD5793
Track not present in AccurateRip database
Copy OK
None of the tracks are present in the AccurateRip database
No errors occurred
End of status report
==== Log checksum 57D841AEDF2A4A096C232AA86F629987F6CD03629CF084CAE39B11BCAB9397DA ====
 
Содержание индексной карты (.CUE)
REM GENRE "Avant-Garde Jazz"
REM DATE 2008
REM DISCID CD0F160E
REM COMMENT "ExactAudioCopy v1.0b3"
PERFORMER "Beatrix Ward-Fernandez"
TITLE "Trio"
FILE "01 - T In T.wav" WAVE
TRACK 01 AUDIO
TITLE "T In T"
PERFORMER "Beatrix Ward-Fernandez"
FLAGS DCP
INDEX 01 00:00:00
FILE "02 - Threnody For Delia.wav" WAVE
TRACK 02 AUDIO
TITLE "Threnody For Delia"
PERFORMER "Beatrix Ward-Fernandez"
FLAGS DCP
INDEX 01 00:00:00
FILE "03 - Manoeuvres.wav" WAVE
TRACK 03 AUDIO
TITLE "Manoeuvres"
PERFORMER "Beatrix Ward-Fernandez"
FLAGS DCP
INDEX 01 00:00:00
FILE "04 - Phase Four.wav" WAVE
TRACK 04 AUDIO
TITLE "Phase Four"
PERFORMER "Beatrix Ward-Fernandez"
FLAGS DCP
INDEX 01 00:00:00
FILE "05 - Sixteen.wav" WAVE
TRACK 05 AUDIO
TITLE "Sixteen"
PERFORMER "Beatrix Ward-Fernandez"
FLAGS DCP
INDEX 01 00:00:00
FILE "06 - Simurg.wav" WAVE
TRACK 06 AUDIO
TITLE "Simurg"
PERFORMER "Beatrix Ward-Fernandez"
FLAGS DCP
INDEX 01 00:00:00
FILE "07 - Lou And Bill.wav" WAVE
TRACK 07 AUDIO
TITLE "Lou And Bill"
PERFORMER "Beatrix Ward-Fernandez"
FLAGS DCP
INDEX 01 00:00:00
FILE "08 - Pari Passu.wav" WAVE
TRACK 08 AUDIO
TITLE "Pari Passu"
PERFORMER "Beatrix Ward-Fernandez"
FLAGS DCP
INDEX 01 00:00:00
FILE "09 - Tone Time.wav" WAVE
TRACK 09 AUDIO
TITLE "Tone Time"
PERFORMER "Beatrix Ward-Fernandez"
FLAGS DCP
INDEX 01 00:00:00
FILE "10 - The Silent Life.wav" WAVE
TRACK 10 AUDIO
TITLE "The Silent Life"
PERFORMER "Beatrix Ward-Fernandez"
FLAGS DCP
INDEX 01 00:00:00
FILE "11 - Hullabaloo.wav" WAVE
TRACK 11 AUDIO
TITLE "Hullabaloo"
PERFORMER "Beatrix Ward-Fernandez"
FLAGS DCP
INDEX 01 00:00:00
FILE "12 - A Peculiar Lustre.wav" WAVE
TRACK 12 AUDIO
TITLE "A Peculiar Lustre"
PERFORMER "Beatrix Ward-Fernandez"
FLAGS DCP
INDEX 01 00:00:00
FILE "13 - Mirador.wav" WAVE
TRACK 13 AUDIO
TITLE "Mirador"
PERFORMER "Beatrix Ward-Fernandez"
FLAGS DCP
INDEX 01 00:00:00
FILE "14 - Orthodoxy.wav" WAVE
TRACK 14 AUDIO
TITLE "Orthodoxy"
PERFORMER "Beatrix Ward-Fernandez"
FLAGS DCP
INDEX 01 00:00:00
 
Лог проверки качества
d:\>d:\aucdtect -d/-m0 d:\zzz\*.wav
auCDtect: CD records authenticity detector, version 0.8.2
Copyright (c) 2004 Oleg Berngardt. All rights reserved.
Copyright (c) 2004 Alexander Djourik. All rights reserved.
------------------------------------------------------------
Processing file: [01. T In T.wav]
------------------------------------------------------------
This track looks like CDDA with probability 100%
------------------------------------------------------------
Processing file: [02. Threnody For Delia.wav]
------------------------------------------------------------
This track looks like CDDA with probability 100%
------------------------------------------------------------
Processing file: [03. Manoeuvres.wav]
------------------------------------------------------------
This track looks like CDDA with probability 100%
------------------------------------------------------------
Processing file: [04. Phase Four.wav]
------------------------------------------------------------
This track looks like CDDA with probability 100%
------------------------------------------------------------
Processing file: [05. Sixteen.wav]
------------------------------------------------------------
This track looks like CDDA with probability 100%
------------------------------------------------------------
Processing file: [06. Simurg.wav]
------------------------------------------------------------
This track looks like CDDA with probability 100%
------------------------------------------------------------
Processing file: [07. Lou And Bill.wav]
------------------------------------------------------------
This track looks like CDDA with probability 100%
------------------------------------------------------------
Processing file: [08. Pari Passu.wav]
------------------------------------------------------------
This track looks like CDDA with probability 100%
------------------------------------------------------------
Processing file: [09. Tone Time.wav]
------------------------------------------------------------
This track looks like CDDA with probability 100%
------------------------------------------------------------
Processing file: [10. The Silent Life.wav]
------------------------------------------------------------
This track looks like CDDA with probability 100%
------------------------------------------------------------
Processing file: [11. Hullabaloo.wav]
------------------------------------------------------------
This track looks like CDDA with probability 100%
------------------------------------------------------------
Processing file: [12. A Peculiar Lustre.wav]
------------------------------------------------------------
This track looks like CDDA with probability 100%
------------------------------------------------------------
Processing file: [13. Mirador.wav]
------------------------------------------------------------
This track looks like CDDA with probability 100%
------------------------------------------------------------
Processing file: [14. Orthodoxy.wav]
------------------------------------------------------------
This track looks like CDDA with probability 100%
------------------------------------------------------------
Final Conclusion:
------------------------------------------------------------
These tracks looks like CDDA with probability 100%
Доп. информация:
 
Album Info & AAJ Review
All music by Ward-Fernandez/Saw/Collins except 13 and 14 by Saw and 7 by Collins
Recorded September 2007 at The Sound Kitchen, Sheffield
Produced by Charlie Collins
All music was played live in real time
Cover painting by Lyn Hodnet
Photo of The Beatrix Ward-Fernandez Trio at Hands Off 2007 by Alexander Mairhofer
The theremin—one of the granddads of electronic instruments—gets a serious uplift via this program, recorded live in real time to convey the inherent attributes of this waveform instrument, sans studio processing. The majority of these tracks were intended for release on the obscure Purple Note label, but are now issued on the U.K.-based, avant-jazz Discus-Music.
Theremin performer Beatrix Ward-Fernandez executes a rather holistic approach while delving into numerous genre-busting frameworks. She augments the session by using a Moog Etherwave pro Theremin and effects, although the familiar sound of this instrument is prevalent amid some wily electronics-based deviations.
Hornist Derek Saw covers the lower registers with his valve trombone, tuba and flugelhorn phrasings, as percussionist Charlie Collins reinforces the trio's largely asymmetrical rhythmic focus. Ward-Fernandez renders the somewhat customary, weeping or teary-eyed imagery of the Theremin, yet the band engages in curiously interesting forms of counterpoint amid gobs of timbre and daunting frameworks. Nonetheless, the musicians embark upon a nouveau modus operandi.
On "Maneuvers," the trio projects a hustle and bustle line of attack, complete with Saw's raspy horn parts and Collins' smack-dab mode of maintaining the flow, as Ward-Fernandez's slithery notes spawn bizarre imagery. "Simurg" is quite humanistic, as the band sojourns into playful minimalism. Otherwise, each track stands on its own. Unlike other cross-stylization outings where the Theremin serves as the lead instrument, listening fatigue does not become a negative factor here.
Within the scope of these fourteen works, the artists execute liquefying themes and a mid-tempo swing vamp, complete with a degenerating meltdown on "Tone Time." Their ingenuity and wit is also highlighted on "Hullabaloo," which sounds like they're communicating with aliens by way of shortwave radio transmissions. In various regions of sound and scope, they dish out avant-garde Sousa March motifs and chatty free jazz-based discourses.
It would be difficult to compare this album to anything in particular. That notion looms as just one of the many redeeming attributes of this infinitely creative and very listenable 2008 release.
 
Состав
Beatrix Ward-Fernandez: Moog Etherwave Pro theremin, EFX, Tar-Rine on 13
Derek Saw: valve trombone, tuba, fluegelhorn
Charlie Collins: drums, cymbals, gong, waterphone, metal, kalimba, marimbula, woodblock, cajon, darbuka, frame drum, tamorrah
По всем вопросам пишите личное сообщение пользователю M0p94ok.
02:53
176
Нет комментариев. Ваш будет первым!